Regístrate gratis¡Bienvenido a mundodvd! Regístrate ahora y accede a todos los contenidos de la web. El registro es totalmente gratuito y obtendrás muchas ventajas.
Blu-ray, DVD y cine en casa
Regístrate gratis!
Registro en mundodvd
No podemos conectar con Amazon

Independence Day

Independence Day | Roland Emmerich | Twentieth Century Fox | 1996

Independence Day carátula Blu-ray

Lanzamiento Blu-ray

09-01-2008

Pistas de audio

  • DTS 5.1 Español
  • DTS HD Master Audio 5.1 Inglés
  • DTS 5.1 Italiano

Ediciones con audio en castellano

Confirmar otras ediciones

Subtítulos

Español, Inglés, Italiano

Comprar Blu-ray Ficha completa

País
Audio
Subt.
Precio
Envío
Total(*)
Audio en castellano
Subtítulos en castellano
-
-
-
Fnac ESP

(*) Siendo Amazon Premium descuentas los gastos de envío

+ Responder tema
Página 21 de 21 PrimerPrimer ... 11192021
Resultados 501 al 515 de 515

Tema: Independence Day (Roland Emmerich, 1996) y secuela

  1. #501
    sabio Avatar de myst
    Fecha de ingreso
    26 dic, 08
    Ubicación
    Nublar Island
    Mensajes
    3,791
    Agradecido
    5674 veces

    Predeterminado Re: Independence Day (Roland Emmerich, 1996) y secuela

    Gracias juanlago. Pudiera ser eso que dices. Lo raro es que le pasa lo mismo a mas gente que conozco. De todod modos lo de las restauraciones y registro es un tema que prefiero no tocar. Asi que ya cuando me toque formatear el ordenador por ir mal probare. Hasta entonces me tendre que comer el problema ya que no me quiero arriesgar a hacer esas cosas y que luego encima no se solucione. Muchas gracias compa.

  2. #502
    The Final Frontier Avatar de Trek
    Fecha de ingreso
    30 abr, 06
    Mensajes
    33,457
    Agradecido
    134688 veces

    Predeterminado Re: Independence Day (Roland Emmerich, 1996) y secuela

    Ficha fotográfica boxset checo bd/bd3d Independence Day, Contraataque (Independence Day, Resurgence - Fullslip Limited Edition)

    CaRnAgE y erman han agradecido esto.

  3. #503
    gurú Avatar de Bender_
    Fecha de ingreso
    24 ene, 08
    Ubicación
    Zaragoza
    Mensajes
    5,915
    Agradecido
    7113 veces

    Predeterminado Re: Independence Day (Roland Emmerich, 1996) y secuela

    KINGDOM, gymnos y erman han agradecido esto.
    Equipo: Pantalla > Samsung QLED Q6FN 75'' / Reproductor: Samsung UBD-M8500

  4. #504
    Charles Lee Ray Avatar de ChuckyGoo
    Fecha de ingreso
    01 ene, 02
    Mensajes
    17,661
    Agradecido
    34626 veces

    Predeterminado Re: Independence Day (Roland Emmerich, 1996) y secuela

    Independence Day Contraataque Digibook Blu-Ray [Blu-ray] saldrá a la venta el 18 de octubre de 2017.
    Devil16 ha agradecido esto.
    LED Philips 42" 7000series

  5. #505
    Cinéfilo austero Avatar de Narmer
    Fecha de ingreso
    11 ago, 10
    Ubicación
    Alicante
    Mensajes
    13,733
    Agradecido
    19553 veces

    Predeterminado Re: Independence Day (Roland Emmerich, 1996) y secuela

    Cita Iniciado por ChuckyGoo Ver mensaje
    Independence Day Contraataque Digibook Blu-Ray [Blu-ray] saldrá a la venta el 18 de octubre de 2017.
    En serio sacan un digibook de esta antes que Independence Day??
    meindifiere ha agradecido esto.
    "Es peligroso, Frodo, cruzar tu puerta. Pones tu pie en el camino, y si no cuidas tus pasos, nunca sabes a dónde te pueden llevar" -Bilbo Bolsón-

  6. #506
    Trepamuros Avatar de Devil16
    Fecha de ingreso
    09 oct, 12
    Mensajes
    8,419
    Agradecido
    15493 veces

    Predeterminado Re: Independence Day (Roland Emmerich, 1996) y secuela

    Cita Iniciado por ChuckyGoo Ver mensaje
    Independence Day Contraataque Digibook Blu-Ray [Blu-ray] saldrá a la venta el 18 de octubre de 2017.
    gymnos ha agradecido esto.

  7. #507
    sabio Avatar de Conrado77
    Fecha de ingreso
    19 dic, 15
    Ubicación
    Barcelona
    Mensajes
    2,302
    Agradecido
    10131 veces

    Predeterminado Re: Independence Day (Roland Emmerich, 1996) y secuela

    BDInfo(s) de las ediciones incluidas en Independence Day - Edición 20 aniversario:

    - Versión original restaurada:

    Código:
    DISC INFO:
    
    Disc Title:     INDEPENDENCE DAY 1 - EDICION 20 ANIVERSARIO
    Disc Size:      44.479.457.935 bytes
    Protection:     AACS
    BD-Java:        Yes
    BDInfo:         0.5.8
    
    PLAYLIST REPORT:
    
    Name:                   00800.MPLS
    Length:                 2:24:48.679 (h:m:s.ms)
    Size:                   39.155.054.592 bytes
    Total Bitrate:          36,05 Mbps
    
    (*) Indicates included stream hidden by this playlist.
    
    VIDEO:
    
    Codec                   Bitrate             Description     
    -----                   -------             -----------     
    MPEG-4 AVC Video        23668 kbps          1080p / 23,976 fps / 16:9 / High Profile 4.1
    
    AUDIO:
    
    Codec                           Language        Bitrate         Description     
    -----                           --------        -------         -----------     
    DTS-HD Master Audio             English         4309 kbps       5.1 / 48 kHz / 4309 kbps / 24-bit (DTS Core: 5.1 / 48 kHz / 1509 kbps / 24-bit)
    Dolby Digital Audio             Spanish         448 kbps        5.1 / 48 kHz / 448 kbps
    Dolby Digital Audio             French          192 kbps        1.0 / 48 kHz / 192 kbps
    DTS Audio                       French          768 kbps        5.1 / 48 kHz / 768 kbps / 24-bit
    DTS Audio                       Spanish         768 kbps        5.1 / 48 kHz / 768 kbps / 24-bit
    DTS Audio                       German          768 kbps        5.1 / 48 kHz / 768 kbps / 24-bit
    DTS Audio                       Italian         768 kbps        5.1 / 48 kHz / 768 kbps / 24-bit
    Dolby Digital Audio             Portuguese      448 kbps        5.1 / 48 kHz / 448 kbps
    Dolby Digital Audio             English         192 kbps        1.0 / 48 kHz / 192 kbps
    Dolby Digital Audio             English         224 kbps        2.0 / 48 kHz / 224 kbps / Dolby Surround
    * Dolby Digital Audio           English         224 kbps        2.0 / 48 kHz / 224 kbps
    * Dolby Digital Audio           English         192 kbps        1.0 / 48 kHz / 192 kbps
    
    SUBTITLES:
    
    Codec                           Language        Bitrate         Description     
    -----                           --------        -------         -----------     
    Presentation Graphics           English         31,970 kbps                     
    Presentation Graphics           Spanish         32,452 kbps                     
    Presentation Graphics           French          29,562 kbps                     
    Presentation Graphics           Spanish         31,787 kbps                     
    Presentation Graphics           Danish          28,592 kbps                     
    Presentation Graphics           Dutch           27,819 kbps                     
    Presentation Graphics           Finnish         34,099 kbps                     
    Presentation Graphics           German          30,514 kbps                     
    Presentation Graphics           Italian         29,141 kbps                     
    Presentation Graphics           Norwegian       28,269 kbps                     
    Presentation Graphics           Portuguese      28,657 kbps                     
    Presentation Graphics           Swedish         29,560 kbps                     
    Presentation Graphics           English         28,674 kbps                     
    Presentation Graphics           French          24,895 kbps                     
    Presentation Graphics           Spanish         25,380 kbps                     
    Presentation Graphics           Dutch           24,122 kbps                     
    Presentation Graphics           German          25,958 kbps                     
    Presentation Graphics           Italian         27,731 kbps                     
    Presentation Graphics           English         46,773 kbps                     
    Presentation Graphics           French          41,311 kbps                     
    Presentation Graphics           Spanish         42,263 kbps                     
    Presentation Graphics           Dutch           39,442 kbps                     
    Presentation Graphics           German          44,690 kbps                     
    Presentation Graphics           Italian         42,783 kbps                     
    Presentation Graphics           English         19,562 kbps                     
    Presentation Graphics           French          0,487 kbps                      
    
    FILES:
    
    Name            Time In         Length          Size            Total Bitrate   
    ----            -------         ------          ----            -------------   
    00600.M2TS      0:00:00.000     0:06:06.240     1.655.783.424   36.168          
    00601.M2TS      0:06:06.240     0:00:48.631     222.412.800     36.587          
    00602.M2TS      0:06:54.872     0:06:17.627     1.715.177.472   36.336          
    00603.M2TS      0:13:12.500     0:00:26.943     121.989.120     36.221          
    00604.M2TS      0:13:39.443     0:20:08.498     5.483.888.640   36.302          
    00605.M2TS      0:33:47.942     0:00:35.744     164.579.328     36.835          
    00606.M2TS      0:34:23.686     0:02:19.973     635.817.984     36.339          
    00607.M2TS      0:36:43.659     0:00:59.768     273.174.528     36.565          
    00608.M2TS      0:37:43.427     0:02:15.635     619.616.256     36.546          
    00609.M2TS      0:39:59.063     0:00:33.533     151.560.192     36.157          
    00610.M2TS      0:40:32.596     0:13:12.041     3.594.676.224   36.308          
    00631.M2TS      0:53:44.637     0:00:38.121     175.822.848     36.897          
    00632.M2TS      0:54:22.759     0:08:25.880     2.307.274.752   36.487          
    00611.M2TS      1:02:48.639     0:00:43.043     192.417.792     35.763          
    00612.M2TS      1:03:31.682     0:02:55.258     792.870.912     36.192          
    00613.M2TS      1:06:26.941     0:00:19.728     89.186.304      36.166          
    00614.M2TS      1:06:46.669     0:08:15.453     2.223.415.296   35.901          
    00615.M2TS      1:15:02.122     0:01:05.023     292.417.536     35.977          
    00616.M2TS      1:16:07.145     0:19:53.025     5.358.231.552   35.930          
    00617.M2TS      1:36:00.170     0:01:13.198     330.553.344     36.127          
    00618.M2TS      1:37:13.369     0:25:32.572     6.933.399.552   36.192          
    00619.M2TS      2:02:45.941     0:00:26.860     121.559.040     36.205          
    00620.M2TS      2:03:12.801     0:21:35.877     5.699.229.696   35.184          
    
    CHAPTERS:
    
    Number          Time In         Length          Avg Video Rate  Max 1-Sec Rate  Max 1-Sec Time  Max 5-Sec Rate  Max 5-Sec Time  Max 10Sec Rate  Max 10Sec Time  Avg Frame Size  Max Frame Size  Max Frame Time  
    ------          -------         ------          --------------  --------------  --------------  --------------  --------------  --------------  --------------  --------------  --------------  --------------  
    1               0:00:00.000     0:02:43.872     21.412 kbps     45.997 kbps     00:00:02.043    34.491 kbps     00:01:33.927    30.670 kbps     00:00:12.137    111.604 bytes   612.931 bytes   00:00:02.377    
    2               0:02:43.872     0:02:17.595     25.728 kbps     44.634 kbps     00:03:13.776    34.054 kbps     00:02:56.301    32.931 kbps     00:02:59.554    134.133 bytes   563.861 bytes   00:04:34.107    
    3               0:05:01.467     0:02:04.207     25.206 kbps     34.832 kbps     00:05:10.935    31.833 kbps     00:05:07.598    28.743 kbps     00:05:02.635    131.413 bytes   546.115 bytes   00:06:00.860    
    4               0:07:05.675     0:00:29.654     16.198 kbps     34.095 kbps     00:07:34.328    21.857 kbps     00:07:30.324    18.293 kbps     00:07:25.319    84.447 bytes    564.947 bytes   00:07:35.204    
    5               0:07:35.329     0:01:19.370     23.717 kbps     31.058 kbps     00:07:35.329    25.611 kbps     00:08:47.318    24.564 kbps     00:08:11.157    123.649 bytes   568.163 bytes   00:07:35.788    
    6               0:08:54.700     0:01:08.276     26.625 kbps     45.859 kbps     00:09:55.720    32.627 kbps     00:09:51.674    30.164 kbps     00:09:46.669    138.809 bytes   522.934 bytes   00:09:56.220    
    7               0:10:02.977     0:01:36.721     24.421 kbps     35.337 kbps     00:10:14.613    29.094 kbps     00:10:10.693    27.245 kbps     00:10:07.523    127.319 bytes   574.100 bytes   00:11:31.524    
    8               0:11:39.698     0:01:52.946     23.648 kbps     39.171 kbps     00:13:28.224    33.473 kbps     00:13:24.261    29.151 kbps     00:13:21.342    123.290 bytes   606.386 bytes   00:12:05.933    
    9               0:13:32.645     0:04:00.323     23.529 kbps     45.999 kbps     00:15:17.875    34.144 kbps     00:15:17.875    30.897 kbps     00:15:37.978    122.669 bytes   553.961 bytes   00:16:07.257    
    10              0:17:32.968     0:06:36.145     22.997 kbps     37.207 kbps     00:18:21.266    31.038 kbps     00:18:21.266    28.670 kbps     00:18:20.891    119.897 bytes   564.513 bytes   00:18:22.976    
    11              0:24:09.114     0:01:50.610     25.298 kbps     33.743 kbps     00:25:39.246    30.415 kbps     00:24:38.935    29.744 kbps     00:24:36.433    131.891 bytes   549.552 bytes   00:25:39.371    
    12              0:25:59.724     0:02:47.083     24.753 kbps     34.718 kbps     00:28:24.577    30.248 kbps     00:28:23.034    29.319 kbps     00:28:18.029    129.052 bytes   509.487 bytes   00:27:40.367    
    13              0:28:46.808     0:02:07.293     25.624 kbps     36.146 kbps     00:30:17.815    31.419 kbps     00:30:38.962    28.216 kbps     00:29:31.186    133.591 bytes   557.975 bytes   00:30:17.857    
    14              0:30:54.102     0:01:54.531     21.996 kbps     33.970 kbps     00:32:33.826    29.516 kbps     00:32:24.317    28.552 kbps     00:32:25.151    114.677 bytes   514.852 bytes   00:31:27.010    
    15              0:32:48.633     0:01:30.006     24.333 kbps     40.964 kbps     00:33:08.111    35.038 kbps     00:33:04.107    31.165 kbps     00:33:02.230    126.862 bytes   519.710 bytes   00:33:08.277    
    16              0:34:18.639     0:01:36.888     22.941 kbps     39.086 kbps     00:34:48.669    30.590 kbps     00:34:48.669    28.960 kbps     00:34:47.793    119.604 bytes   502.195 bytes   00:34:54.133    
    17              0:35:55.528     0:01:10.236     25.524 kbps     44.041 kbps     00:35:57.613    31.266 kbps     00:35:55.945    29.716 kbps     00:35:56.112    133.073 bytes   514.252 bytes   00:35:58.573    
    18              0:37:05.765     0:00:23.857     23.611 kbps     33.484 kbps     00:37:21.322    27.569 kbps     00:37:23.032    27.029 kbps     00:37:17.234    123.099 bytes   482.534 bytes   00:37:22.323    
    19              0:37:29.622     0:01:07.942     23.116 kbps     36.166 kbps     00:37:35.961    27.178 kbps     00:38:24.677    26.121 kbps     00:38:26.846    120.516 bytes   496.755 bytes   00:38:32.518    
    20              0:38:37.565     0:01:39.849     22.977 kbps     33.939 kbps     00:40:11.909    29.225 kbps     00:39:55.768    27.491 kbps     00:39:52.765    119.792 bytes   508.891 bytes   00:40:00.731    
    21              0:40:17.414     0:01:24.876     28.713 kbps     36.910 kbps     00:40:34.223    31.686 kbps     00:40:48.195    30.726 kbps     00:40:49.655    149.697 bytes   560.287 bytes   00:40:46.735    
    22              0:41:42.291     0:02:45.206     24.582 kbps     48.080 kbps     00:42:00.267    32.637 kbps     00:43:08.502    30.383 kbps     00:42:06.065    128.158 bytes   641.378 bytes   00:42:00.309    
    23              0:44:27.498     0:01:54.030     22.983 kbps     36.182 kbps     00:45:18.632    29.574 kbps     00:45:18.632    26.836 kbps     00:45:18.257    119.820 bytes   572.241 bytes   00:45:19.466    
    24              0:46:21.528     0:03:41.888     23.756 kbps     41.176 kbps     00:48:16.643    30.821 kbps     00:48:12.806    28.444 kbps     00:46:44.968    123.855 bytes   605.617 bytes   00:46:50.182    
    25              0:50:03.416     0:02:58.553     22.176 kbps     43.320 kbps     00:50:10.048    28.553 kbps     00:51:39.554    27.764 kbps     00:51:32.797    115.613 bytes   538.970 bytes   00:50:11.049    
    26              0:53:01.970     0:00:42.667     21.792 kbps     35.666 kbps     00:53:23.116    28.102 kbps     00:53:22.407    24.526 kbps     00:53:22.907    113.611 bytes   550.006 bytes   00:53:25.952    
    27              0:53:44.637     0:05:05.888     23.230 kbps     50.082 kbps     00:58:43.019    28.764 kbps     00:58:38.973    26.370 kbps     00:58:34.010    121.111 bytes   537.934 bytes   00:58:09.152    
    28              0:58:50.526     0:01:19.162     24.023 kbps     31.398 kbps     00:58:58.785    26.569 kbps     00:59:38.658    25.222 kbps     00:59:34.195    125.242 bytes   508.151 bytes   00:59:48.710    
    29              1:00:09.689     0:01:27.587     24.559 kbps     36.409 kbps     01:01:05.203    28.038 kbps     01:01:30.019    26.156 kbps     01:00:56.194    128.042 bytes   614.136 bytes   01:01:23.346    
    30              1:01:37.276     0:00:55.221     24.754 kbps     31.261 kbps     01:01:41.364    28.321 kbps     01:01:41.531    27.750 kbps     01:01:38.486    129.055 bytes   469.760 bytes   01:01:48.037    
    31              1:02:32.498     0:00:44.794     23.821 kbps     32.362 kbps     01:02:37.378    27.912 kbps     01:02:58.691    25.905 kbps     01:02:57.189    124.193 bytes   455.899 bytes   01:02:38.212    
    32              1:03:17.293     0:03:02.015     23.770 kbps     33.508 kbps     01:03:18.919    27.454 kbps     01:05:18.789    26.231 kbps     01:05:14.410    123.928 bytes   501.304 bytes   01:03:18.961    
    33              1:06:19.308     0:01:01.352     24.790 kbps     37.634 kbps     01:06:42.331    31.580 kbps     01:06:42.331    28.795 kbps     01:06:59.181    129.243 bytes   564.668 bytes   01:06:43.165    
    34              1:07:20.661     0:01:47.357     21.448 kbps     36.583 kbps     01:09:00.803    28.457 kbps     01:08:56.799    27.722 kbps     01:08:51.794    111.822 bytes   477.673 bytes   01:08:44.620    
    35              1:09:08.018     0:03:51.397     25.088 kbps     38.113 kbps     01:09:47.099    31.898 kbps     01:09:30.416    30.918 kbps     01:09:30.416    130.797 bytes   709.916 bytes   01:09:47.307    
    36              1:12:59.416     0:02:05.583     23.157 kbps     33.245 kbps     01:13:22.189    28.798 kbps     01:14:33.176    27.205 kbps     01:14:54.990    120.728 bytes   482.727 bytes   01:15:00.203    
    37              1:15:05.000     0:02:49.627     22.653 kbps     38.658 kbps     01:17:20.552    28.468 kbps     01:16:01.223    26.914 kbps     01:15:55.217    118.100 bytes   521.912 bytes   01:15:13.759    
    38              1:17:54.628     0:01:50.318     22.780 kbps     30.393 kbps     01:18:20.362    27.475 kbps     01:18:21.279    26.788 kbps     01:18:19.986    118.762 bytes   505.091 bytes   01:18:22.113    
    39              1:19:44.946     0:07:35.580     23.306 kbps     47.193 kbps     01:23:57.365    33.875 kbps     01:27:07.638    32.980 kbps     01:27:03.885    121.509 bytes   576.456 bytes   01:26:59.213    
    40              1:27:20.526     0:03:26.956     22.655 kbps     39.102 kbps     01:29:20.021    30.399 kbps     01:29:18.853    27.456 kbps     01:29:18.853    118.112 bytes   561.481 bytes   01:29:20.980    
    41              1:30:47.483     0:01:03.354     23.634 kbps     40.979 kbps     01:31:04.041    31.138 kbps     01:31:25.354    30.938 kbps     01:31:20.599    123.217 bytes   559.579 bytes   01:31:04.709    
    42              1:31:50.838     0:02:56.301     29.631 kbps     37.443 kbps     01:32:52.733    33.019 kbps     01:33:11.210    32.434 kbps     01:33:31.272    154.482 bytes   581.702 bytes   01:32:27.500    
    43              1:34:47.139     0:06:41.359     23.464 kbps     42.233 kbps     01:34:53.020    27.696 kbps     01:36:42.671    25.953 kbps     01:36:42.671    122.330 bytes   606.135 bytes   01:34:53.854    
    44              1:41:28.498     0:03:52.106     25.603 kbps     45.371 kbps     01:42:13.001    33.710 kbps     01:43:45.552    33.211 kbps     01:43:45.886    133.482 bytes   704.532 bytes   01:42:13.585    
    45              1:45:20.605     0:01:35.720     29.269 kbps     37.868 kbps     01:45:27.988    32.382 kbps     01:45:25.610    31.569 kbps     01:45:25.610    152.593 bytes   542.328 bytes   01:46:18.788    
    46              1:46:56.326     0:04:37.694     25.981 kbps     38.725 kbps     01:47:10.340    31.720 kbps     01:47:19.307    31.426 kbps     01:47:19.933    135.451 bytes   534.003 bytes   01:49:56.548    
    47              1:51:34.020     0:04:24.639     21.578 kbps     36.009 kbps     01:54:42.125    28.952 kbps     01:51:52.997    27.762 kbps     01:51:50.536    112.498 bytes   504.124 bytes   01:52:04.801    
    48              1:55:58.659     0:03:38.009     19.704 kbps     31.249 kbps     01:59:00.716    25.153 kbps     01:59:14.438    23.718 kbps     01:58:59.882    102.728 bytes   551.125 bytes   01:56:13.674    
    49              1:59:36.669     0:03:09.272     22.636 kbps     40.784 kbps     02:01:23.818    26.547 kbps     02:01:19.814    25.465 kbps     02:02:16.370    118.014 bytes   523.817 bytes   01:59:47.555    
    50              2:02:45.941     0:00:21.980     24.542 kbps     34.210 kbps     02:02:48.527    27.617 kbps     02:02:48.110    26.694 kbps     02:02:46.191    127.949 bytes   493.563 bytes   02:03:07.504    
    51              2:03:07.921     0:05:28.703     26.629 kbps     38.265 kbps     02:07:33.854    30.355 kbps     02:05:42.201    29.309 kbps     02:06:20.614    138.832 bytes   590.138 bytes   02:04:51.024    
    52              2:08:36.625     0:03:56.027     25.441 kbps     45.853 kbps     02:10:18.977    30.177 kbps     02:10:14.890    28.557 kbps     02:10:21.813    132.639 bytes   698.635 bytes   02:12:14.634    
    53              2:12:32.652     0:03:31.502     26.088 kbps     37.203 kbps     02:13:03.975    31.233 kbps     02:13:19.741    29.936 kbps     02:13:12.484    136.008 bytes   561.335 bytes   02:12:41.286    
    54              2:16:04.155     0:08:44.524     18.177 kbps     32.959 kbps     02:19:09.257    29.717 kbps     02:19:06.921    28.275 kbps     02:19:00.290    94.776 bytes    381.384 bytes   02:19:25.273    
    
    QUICK SUMMARY:
    
    Disc Title: INDEPENDENCE DAY 1 - EDICION 20 ANIVERSARIO
    Disc Size: 44.479.457.935 bytes
    Protection: AACS
    BD-Java: Yes
    Playlist: 00800.MPLS
    Size: 39.155.054.592 bytes
    Length: 2:24:48.679
    Total Bitrate: 36,05 Mbps
    Video: MPEG-4 AVC Video / 23668 kbps / 1080p / 23,976 fps / 16:9 / High Profile 4.1
    Audio: English / DTS-HD Master Audio / 5.1 / 48 kHz / 4309 kbps / 24-bit (DTS Core: 5.1 / 48 kHz / 1509 kbps / 24-bit)
    Audio: Spanish / Dolby Digital Audio / 5.1 / 48 kHz / 448 kbps
    Audio: French / Dolby Digital Audio / 1.0 / 48 kHz / 192 kbps
    Audio: French / DTS Audio / 5.1 / 48 kHz / 768 kbps / 24-bit
    Audio: Spanish / DTS Audio / 5.1 / 48 kHz / 768 kbps / 24-bit
    Audio: German / DTS Audio / 5.1 / 48 kHz / 768 kbps / 24-bit
    Audio: Italian / DTS Audio / 5.1 / 48 kHz / 768 kbps / 24-bit
    Audio: Portuguese / Dolby Digital Audio / 5.1 / 48 kHz / 448 kbps
    Audio: English / Dolby Digital Audio / 1.0 / 48 kHz / 192 kbps
    Audio: English / Dolby Digital Audio / 2.0 / 48 kHz / 224 kbps / Dolby Surround
    * Audio: English / Dolby Digital Audio / 2.0 / 48 kHz / 224 kbps
    * Audio: English / Dolby Digital Audio / 1.0 / 48 kHz / 192 kbps
    Subtitle: English / 31,970 kbps
    Subtitle: Spanish / 32,452 kbps
    Subtitle: French / 29,562 kbps
    Subtitle: Spanish / 31,787 kbps
    Subtitle: Danish / 28,592 kbps
    Subtitle: Dutch / 27,819 kbps
    Subtitle: Finnish / 34,099 kbps
    Subtitle: German / 30,514 kbps
    Subtitle: Italian / 29,141 kbps
    Subtitle: Norwegian / 28,269 kbps
    Subtitle: Portuguese / 28,657 kbps
    Subtitle: Swedish / 29,560 kbps
    Subtitle: English / 28,674 kbps
    Subtitle: French / 24,895 kbps
    Subtitle: Spanish / 25,380 kbps
    Subtitle: Dutch / 24,122 kbps
    Subtitle: German / 25,958 kbps
    Subtitle: Italian / 27,731 kbps
    Subtitle: English / 46,773 kbps
    Subtitle: French / 41,311 kbps
    Subtitle: Spanish / 42,263 kbps
    Subtitle: Dutch / 39,442 kbps
    Subtitle: German / 44,690 kbps
    Subtitle: Italian / 42,783 kbps
    Subtitle: English / 19,562 kbps
    Subtitle: French / 0,487 kbps
    - Versión extendida:

    Código:
    DISC INFO:
    
    Disc Title:     INDEPENDENCE DAY 1 - EDICION 20 ANIVERSARIO
    Disc Size:      44.479.457.935 bytes
    Protection:     AACS
    BD-Java:        Yes
    BDInfo:         0.5.8
    
    PLAYLIST REPORT:
    
    Name:                   00801.MPLS
    Length:                 2:33:33.370 (h:m:s.ms)
    Size:                   41.440.094.208 bytes
    Total Bitrate:          35,98 Mbps
    
    (*) Indicates included stream hidden by this playlist.
    
    VIDEO:
    
    Codec                   Bitrate             Description     
    -----                   -------             -----------     
    MPEG-4 AVC Video        23669 kbps          1080p / 23,976 fps / 16:9 / High Profile 4.1
    
    AUDIO:
    
    Codec                           Language        Bitrate         Description     
    -----                           --------        -------         -----------     
    DTS-HD Master Audio             English         4259 kbps       5.1 / 48 kHz / 4259 kbps / 24-bit (DTS Core: 5.1 / 48 kHz / 1509 kbps / 24-bit)
    Dolby Digital Audio             Spanish         448 kbps        5.1 / 48 kHz / 448 kbps
    Dolby Digital Audio             French          192 kbps        1.0 / 48 kHz / 192 kbps
    DTS Audio                       French          768 kbps        5.1 / 48 kHz / 768 kbps / 24-bit
    DTS Audio                       Spanish         768 kbps        5.1 / 48 kHz / 768 kbps / 24-bit
    DTS Audio                       German          768 kbps        5.1 / 48 kHz / 768 kbps / 24-bit
    DTS Audio                       Italian         768 kbps        5.1 / 48 kHz / 768 kbps / 24-bit
    Dolby Digital Audio             Portuguese      448 kbps        5.1 / 48 kHz / 448 kbps
    * Dolby Digital Audio           English         192 kbps        1.0 / 48 kHz / 192 kbps
    * Dolby Digital Audio           English         224 kbps        2.0 / 48 kHz / 224 kbps / Dolby Surround
    Dolby Digital Audio             English         224 kbps        2.0 / 48 kHz / 224 kbps
    Dolby Digital Audio             English         192 kbps        1.0 / 48 kHz / 192 kbps
    
    SUBTITLES:
    
    Codec                           Language        Bitrate         Description     
    -----                           --------        -------         -----------     
    Presentation Graphics           English         32,835 kbps                     
    Presentation Graphics           Spanish         33,134 kbps                     
    Presentation Graphics           French          30,216 kbps                     
    Presentation Graphics           Spanish         32,457 kbps                     
    Presentation Graphics           Danish          29,306 kbps                     
    Presentation Graphics           Dutch           28,617 kbps                     
    Presentation Graphics           Finnish         34,920 kbps                     
    Presentation Graphics           German          31,240 kbps                     
    Presentation Graphics           Italian         29,831 kbps                     
    Presentation Graphics           Norwegian       29,024 kbps                     
    Presentation Graphics           Portuguese      29,700 kbps                     
    Presentation Graphics           Swedish         30,339 kbps                     
    Presentation Graphics           English         28,939 kbps                     
    Presentation Graphics           French          25,229 kbps                     
    Presentation Graphics           Spanish         25,725 kbps                     
    Presentation Graphics           Dutch           24,292 kbps                     
    Presentation Graphics           German          26,245 kbps                     
    Presentation Graphics           Italian         27,997 kbps                     
    * Presentation Graphics         English         41,601 kbps                     
    * Presentation Graphics         French          36,765 kbps                     
    * Presentation Graphics         Spanish         37,577 kbps                     
    * Presentation Graphics         Dutch           35,099 kbps                     
    * Presentation Graphics         German          39,794 kbps                     
    * Presentation Graphics         Italian         38,156 kbps                     
    * Presentation Graphics         English         16,934 kbps                     
    Presentation Graphics           French          2,878 kbps                      
    
    FILES:
    
    Name            Time In         Length          Size            Total Bitrate   
    ----            -------         ------          ----            -------------   
    00600.M2TS      0:00:00.000     0:06:06.240     1.655.783.424   36.168          
    00621.M2TS      0:06:06.240     0:01:15.533     336.316.416     35.620          
    00602.M2TS      0:07:21.774     0:06:17.627     1.715.177.472   36.336          
    00622.M2TS      0:13:39.401     0:01:24.042     373.051.392     35.511          
    00604.M2TS      0:15:03.444     0:20:08.498     5.483.888.640   36.302          
    00623.M2TS      0:35:11.943     0:01:33.593     414.529.536     35.432          
    00606.M2TS      0:36:45.536     0:02:19.973     635.817.984     36.339          
    00624.M2TS      0:39:05.509     0:02:36.156     689.829.888     35.341          
    00608.M2TS      0:41:41.665     0:02:15.635     619.616.256     36.546          
    00625.M2TS      0:43:57.301     0:00:55.805     249.716.736     35.798          
    00610.M2TS      0:44:53.106     0:13:12.041     3.594.676.224   36.308          
    00633.M2TS      0:58:05.148     0:00:38.079     174.802.944     36.724          
    00632.M2TS      0:58:43.227     0:08:25.880     2.307.274.752   36.487          
    00626.M2TS      1:07:09.108     0:01:25.293     375.349.248     35.205          
    00612.M2TS      1:08:34.401     0:02:55.258     792.870.912     36.192          
    00627.M2TS      1:11:29.660     0:00:47.130     206.168.064     34.995          
    00614.M2TS      1:12:16.790     0:08:15.453     2.223.415.296   35.901          
    00628.M2TS      1:20:32.243     0:03:39.636     976.158.720     35.555          
    00616.M2TS      1:24:11.879     0:19:53.025     5.358.231.552   35.930          
    00629.M2TS      1:44:04.905     0:01:13.198     328.802.304     35.936          
    00618.M2TS      1:45:18.103     0:25:32.572     6.933.399.552   36.192          
    00630.M2TS      2:10:50.675     0:01:06.816     295.987.200     35.439          
    00620.M2TS      2:11:57.492     0:21:35.877     5.699.229.696   35.184          
    
    CHAPTERS:
    
    Number          Time In         Length          Avg Video Rate  Max 1-Sec Rate  Max 1-Sec Time  Max 5-Sec Rate  Max 5-Sec Time  Max 10Sec Rate  Max 10Sec Time  Avg Frame Size  Max Frame Size  Max Frame Time  
    ------          -------         ------          --------------  --------------  --------------  --------------  --------------  --------------  --------------  --------------  --------------  --------------  
    1               0:00:00.000     0:02:43.872     21.412 kbps     45.997 kbps     00:00:02.043    34.491 kbps     00:01:33.927    30.670 kbps     00:00:12.137    111.604 bytes   612.931 bytes   00:00:02.377    
    2               0:02:43.872     0:02:17.595     25.728 kbps     44.634 kbps     00:03:13.776    34.054 kbps     00:02:56.301    32.931 kbps     00:02:59.554    134.133 bytes   563.861 bytes   00:04:34.107    
    3               0:05:01.467     0:02:31.109     24.817 kbps     34.832 kbps     00:05:10.935    31.833 kbps     00:05:07.598    28.743 kbps     00:05:02.635    129.382 bytes   546.115 bytes   00:06:00.860    
    4               0:07:32.577     0:00:29.738     16.264 kbps     36.095 kbps     00:08:01.314    22.498 kbps     00:07:57.310    18.506 kbps     00:07:52.305    84.794 bytes    564.947 bytes   00:08:02.106    
    5               0:08:02.315     0:01:19.287     23.700 kbps     29.540 kbps     00:08:02.315    25.611 kbps     00:09:14.220    24.564 kbps     00:08:38.059    123.560 bytes   568.163 bytes   00:08:02.690    
    6               0:09:21.602     0:01:08.276     26.625 kbps     45.859 kbps     00:10:22.621    32.627 kbps     00:10:18.576    30.164 kbps     00:10:13.571    138.809 bytes   522.934 bytes   00:10:23.122    
    7               0:10:29.879     0:01:36.721     24.421 kbps     35.337 kbps     00:10:41.515    29.094 kbps     00:10:37.595    27.245 kbps     00:10:34.425    127.319 bytes   574.100 bytes   00:11:58.426    
    8               0:12:06.600     0:02:01.913     23.572 kbps     37.893 kbps     00:12:31.917    32.039 kbps     00:13:51.121    29.519 kbps     00:13:50.454    122.892 bytes   606.386 bytes   00:12:32.835    
    9               0:14:08.514     0:00:48.214     24.209 kbps     32.599 kbps     00:14:12.059    28.844 kbps     00:14:11.684    26.706 kbps     00:14:11.684    126.216 bytes   482.455 bytes   00:14:15.521    
    10              0:14:56.729     0:04:00.240     23.490 kbps     45.999 kbps     00:16:41.875    34.144 kbps     00:16:41.875    30.897 kbps     00:17:01.979    122.465 bytes   553.961 bytes   00:17:31.258    
    11              0:18:56.969     0:06:36.145     22.997 kbps     37.207 kbps     00:19:45.267    31.038 kbps     00:19:45.267    28.670 kbps     00:19:44.892    119.897 bytes   564.513 bytes   00:19:46.977    
    12              0:25:33.114     0:01:50.610     25.298 kbps     33.743 kbps     00:27:03.246    30.415 kbps     00:26:02.936    29.744 kbps     00:26:00.433    131.891 bytes   549.552 bytes   00:27:03.371    
    13              0:27:23.725     0:02:47.083     24.753 kbps     34.718 kbps     00:29:48.578    30.248 kbps     00:29:47.035    29.319 kbps     00:29:42.030    129.052 bytes   509.487 bytes   00:29:04.367    
    14              0:30:10.808     0:02:07.293     25.624 kbps     36.146 kbps     00:31:41.816    31.419 kbps     00:32:02.962    28.216 kbps     00:30:55.186    133.591 bytes   557.975 bytes   00:31:41.858    
    15              0:32:18.102     0:01:54.531     21.996 kbps     33.970 kbps     00:33:57.827    29.516 kbps     00:33:48.317    28.552 kbps     00:33:49.152    114.677 bytes   514.852 bytes   00:32:51.010    
    16              0:34:12.633     0:02:26.771     23.881 kbps     40.964 kbps     00:34:32.111    35.038 kbps     00:34:28.107    31.165 kbps     00:34:26.230    124.502 bytes   519.710 bytes   00:34:32.278    
    17              0:36:39.405     0:01:37.972     23.094 kbps     39.086 kbps     00:37:10.519    30.590 kbps     00:37:10.519    28.960 kbps     00:37:09.644    120.403 bytes   502.195 bytes   00:37:15.983    
    18              0:38:17.378     0:01:47.732     24.374 kbps     44.041 kbps     00:38:19.463    31.266 kbps     00:38:17.795    29.716 kbps     00:38:17.962    127.075 bytes   514.252 bytes   00:38:20.423    
    19              0:40:05.110     0:00:57.056     24.178 kbps     36.862 kbps     00:40:50.906    30.809 kbps     00:40:46.986    28.964 kbps     00:40:44.733    126.054 bytes   496.164 bytes   00:40:40.646    
    20              0:41:02.167     0:00:31.281     23.365 kbps     42.803 kbps     00:41:27.276    35.382 kbps     00:41:24.815    28.554 kbps     00:41:22.646    121.815 bytes   622.397 bytes   00:41:27.484    
    21              0:41:33.449     0:02:42.162     23.068 kbps     35.159 kbps     00:41:34.199    28.850 kbps     00:43:54.006    26.975 kbps     00:43:51.003    120.266 bytes   531.789 bytes   00:41:38.829    
    22              0:44:15.611     0:00:22.313     26.657 kbps     30.951 kbps     00:44:35.547    27.441 kbps     00:44:32.920    26.806 kbps     00:44:27.915    138.980 bytes   495.098 bytes   00:44:36.423    
    23              0:44:37.925     0:01:24.876     28.412 kbps     36.910 kbps     00:44:54.733    31.686 kbps     00:45:08.705    30.726 kbps     00:45:10.165    148.129 bytes   560.287 bytes   00:45:07.246    
    24              0:46:02.801     0:02:45.206     24.582 kbps     48.080 kbps     00:46:20.777    32.637 kbps     00:47:29.012    30.383 kbps     00:46:26.575    128.158 bytes   641.378 bytes   00:46:20.819    
    25              0:48:48.008     0:01:54.030     22.983 kbps     36.182 kbps     00:49:39.142    29.574 kbps     00:49:39.142    26.836 kbps     00:49:38.767    119.820 bytes   572.241 bytes   00:49:39.976    
    26              0:50:42.038     0:03:40.678     23.886 kbps     41.176 kbps     00:52:37.153    30.821 kbps     00:52:33.316    28.444 kbps     00:51:05.479    124.533 bytes   605.617 bytes   00:51:10.692    
    27              0:54:22.717     0:02:59.762     22.027 kbps     43.320 kbps     00:54:30.558    28.553 kbps     00:56:00.064    27.764 kbps     00:55:53.308    114.836 bytes   538.970 bytes   00:54:31.559    
    28              0:57:22.480     0:00:42.667     21.798 kbps     35.666 kbps     00:57:43.626    28.102 kbps     00:57:42.917    24.526 kbps     00:57:43.418    113.644 bytes   550.006 bytes   00:57:46.462    
    29              0:58:05.148     0:05:05.847     23.235 kbps     50.082 kbps     01:03:03.487    28.764 kbps     01:02:59.442    26.370 kbps     01:02:54.478    121.135 bytes   537.934 bytes   01:02:29.620    
    30              1:03:10.995     0:01:19.162     24.023 kbps     31.398 kbps     01:03:19.253    26.569 kbps     01:03:59.126    25.222 kbps     01:03:54.664    125.242 bytes   508.151 bytes   01:04:09.178    
    31              1:04:30.157     0:01:30.590     24.597 kbps     36.409 kbps     01:05:25.671    28.038 kbps     01:05:50.488    27.414 kbps     01:05:50.488    128.239 bytes   614.136 bytes   01:05:43.814    
    32              1:06:00.748     0:00:52.218     24.699 kbps     31.261 kbps     01:06:01.832    28.321 kbps     01:06:01.999    26.736 kbps     01:06:00.748    128.771 bytes   469.760 bytes   01:06:08.506    
    33              1:06:52.967     0:01:27.045     23.908 kbps     32.362 kbps     01:06:57.847    27.899 kbps     01:07:19.159    26.001 kbps     01:07:19.243    124.646 bytes   532.643 bytes   01:07:28.586    
    34              1:08:20.012     0:03:02.015     23.722 kbps     33.062 kbps     01:11:11.975    27.454 kbps     01:10:21.508    26.231 kbps     01:10:17.129    123.675 bytes   521.167 bytes   01:08:20.804    
    35              1:11:22.027     0:01:28.296     24.455 kbps     35.185 kbps     01:11:29.535    30.409 kbps     01:12:30.846    28.795 kbps     01:12:29.303    127.500 bytes   559.768 bytes   01:11:45.884    
    36              1:12:50.324     0:01:47.816     21.415 kbps     36.583 kbps     01:14:30.924    28.457 kbps     01:14:26.920    27.722 kbps     01:14:21.915    111.647 bytes   477.673 bytes   01:14:14.741    
    37              1:14:38.140     0:03:51.397     25.088 kbps     38.113 kbps     01:15:17.220    31.898 kbps     01:15:00.537    30.918 kbps     01:15:00.537    130.797 bytes   709.916 bytes   01:15:17.429    
    38              1:18:29.537     0:02:49.669     23.262 kbps     36.329 kbps     01:21:07.320    29.317 kbps     01:20:30.075    27.583 kbps     01:20:25.070    121.276 bytes   521.613 bytes   01:20:44.714    
    39              1:21:19.207     0:01:45.522     21.665 kbps     29.160 kbps     01:21:34.806    25.873 kbps     01:21:32.429    24.238 kbps     01:22:34.908    112.954 bytes   533.468 bytes   01:22:43.666    
    40              1:23:04.729     0:02:55.049     24.013 kbps     38.658 kbps     01:25:25.286    31.894 kbps     01:23:28.378    30.720 kbps     01:23:28.127    125.195 bytes   504.558 bytes   01:24:08.459    
    41              1:25:59.779     0:01:49.901     22.774 kbps     30.393 kbps     01:26:25.096    27.475 kbps     01:26:26.013    26.788 kbps     01:26:24.721    118.731 bytes   505.091 bytes   01:26:26.848    
    42              1:27:49.680     0:07:35.580     23.306 kbps     47.193 kbps     01:32:02.099    33.875 kbps     01:35:12.373    32.980 kbps     01:35:08.619    121.509 bytes   576.456 bytes   01:35:03.948    
    43              1:35:25.260     0:03:26.956     22.655 kbps     39.102 kbps     01:37:24.755    30.399 kbps     01:37:23.587    27.456 kbps     01:37:23.587    118.112 bytes   561.481 bytes   01:37:25.714    
    44              1:38:52.217     0:01:03.354     23.634 kbps     40.979 kbps     01:39:08.775    31.138 kbps     01:39:30.088    30.938 kbps     01:39:25.334    123.217 bytes   559.579 bytes   01:39:09.443    
    45              1:39:55.572     0:02:56.217     29.644 kbps     37.443 kbps     01:40:57.467    33.019 kbps     01:41:15.944    32.434 kbps     01:41:36.006    154.552 bytes   581.702 bytes   01:40:32.234    
    46              1:42:51.790     0:06:41.442     23.458 kbps     42.233 kbps     01:42:57.754    27.309 kbps     01:44:40.816    26.339 kbps     01:44:42.234    122.298 bytes   606.135 bytes   01:42:58.588    
    47              1:49:33.233     0:03:52.106     25.603 kbps     45.371 kbps     01:50:17.735    33.710 kbps     01:51:50.286    33.211 kbps     01:51:50.620    133.482 bytes   704.532 bytes   01:50:18.319    
    48              1:53:25.339     0:01:35.720     29.269 kbps     37.868 kbps     01:53:32.722    32.382 kbps     01:53:30.344    31.569 kbps     01:53:30.344    152.593 bytes   542.328 bytes   01:54:23.523    
    49              1:55:01.060     0:04:37.694     25.981 kbps     38.725 kbps     01:55:15.074    31.720 kbps     01:55:24.041    31.426 kbps     01:55:24.667    135.451 bytes   534.003 bytes   01:58:01.282    
    50              1:59:38.754     0:04:24.639     21.578 kbps     36.009 kbps     02:02:46.859    28.952 kbps     01:59:57.731    27.762 kbps     01:59:55.271    112.498 bytes   504.124 bytes   02:00:09.535    
    51              2:04:03.394     0:03:38.009     19.704 kbps     31.249 kbps     02:07:05.450    25.153 kbps     02:07:19.172    23.718 kbps     02:07:04.616    102.728 bytes   551.125 bytes   02:04:18.409    
    52              2:07:41.403     0:03:09.272     22.636 kbps     40.784 kbps     02:09:28.552    26.547 kbps     02:09:24.548    25.465 kbps     02:10:21.104    118.014 bytes   523.817 bytes   02:07:52.289    
    53              2:10:50.675     0:01:01.936     24.033 kbps     42.276 kbps     02:11:47.482    30.802 kbps     02:10:55.097    28.573 kbps     02:10:50.926    125.296 bytes   603.789 bytes   02:11:48.066    
    54              2:11:52.612     0:05:28.703     26.629 kbps     38.265 kbps     02:16:18.545    30.355 kbps     02:14:26.891    29.309 kbps     02:15:05.305    138.830 bytes   590.138 bytes   02:13:35.715    
    55              2:17:21.316     0:03:56.027     25.441 kbps     45.853 kbps     02:19:03.668    30.177 kbps     02:18:59.581    28.557 kbps     02:19:06.504    132.639 bytes   698.635 bytes   02:20:59.325    
    56              2:21:17.343     0:03:31.336     26.108 kbps     37.203 kbps     02:21:48.666    31.233 kbps     02:22:04.432    29.936 kbps     02:21:57.175    136.116 bytes   561.335 bytes   02:21:25.977    
    57              2:24:48.679     0:08:44.690     18.172 kbps     32.959 kbps     02:27:53.948    29.717 kbps     02:27:51.612    28.275 kbps     02:27:44.980    94.746 bytes    381.384 bytes   02:28:09.964    
    
    QUICK SUMMARY:
    
    Disc Title: INDEPENDENCE DAY 1 - EDICION 20 ANIVERSARIO
    Disc Size: 44.479.457.935 bytes
    Protection: AACS
    BD-Java: Yes
    Playlist: 00801.MPLS
    Size: 41.440.094.208 bytes
    Length: 2:33:33.370
    Total Bitrate: 35,98 Mbps
    Video: MPEG-4 AVC Video / 23669 kbps / 1080p / 23,976 fps / 16:9 / High Profile 4.1
    Audio: English / DTS-HD Master Audio / 5.1 / 48 kHz / 4259 kbps / 24-bit (DTS Core: 5.1 / 48 kHz / 1509 kbps / 24-bit)
    Audio: Spanish / Dolby Digital Audio / 5.1 / 48 kHz / 448 kbps
    Audio: French / Dolby Digital Audio / 1.0 / 48 kHz / 192 kbps
    Audio: French / DTS Audio / 5.1 / 48 kHz / 768 kbps / 24-bit
    Audio: Spanish / DTS Audio / 5.1 / 48 kHz / 768 kbps / 24-bit
    Audio: German / DTS Audio / 5.1 / 48 kHz / 768 kbps / 24-bit
    Audio: Italian / DTS Audio / 5.1 / 48 kHz / 768 kbps / 24-bit
    Audio: Portuguese / Dolby Digital Audio / 5.1 / 48 kHz / 448 kbps
    * Audio: English / Dolby Digital Audio / 1.0 / 48 kHz / 192 kbps
    * Audio: English / Dolby Digital Audio / 2.0 / 48 kHz / 224 kbps / Dolby Surround
    Audio: English / Dolby Digital Audio / 2.0 / 48 kHz / 224 kbps
    Audio: English / Dolby Digital Audio / 1.0 / 48 kHz / 192 kbps
    Subtitle: English / 32,835 kbps
    Subtitle: Spanish / 33,134 kbps
    Subtitle: French / 30,216 kbps
    Subtitle: Spanish / 32,457 kbps
    Subtitle: Danish / 29,306 kbps
    Subtitle: Dutch / 28,617 kbps
    Subtitle: Finnish / 34,920 kbps
    Subtitle: German / 31,240 kbps
    Subtitle: Italian / 29,831 kbps
    Subtitle: Norwegian / 29,024 kbps
    Subtitle: Portuguese / 29,700 kbps
    Subtitle: Swedish / 30,339 kbps
    Subtitle: English / 28,939 kbps
    Subtitle: French / 25,229 kbps
    Subtitle: Spanish / 25,725 kbps
    Subtitle: Dutch / 24,292 kbps
    Subtitle: German / 26,245 kbps
    Subtitle: Italian / 27,997 kbps
    * Subtitle: English / 41,601 kbps
    * Subtitle: French / 36,765 kbps
    * Subtitle: Spanish / 37,577 kbps
    * Subtitle: Dutch / 35,099 kbps
    * Subtitle: German / 39,794 kbps
    * Subtitle: Italian / 38,156 kbps
    * Subtitle: English / 16,934 kbps
    Subtitle: French / 2,878 kbps
    Última edición por Conrado77; 26/11/2017 a las 02:51
    Mr.Vorhees ha agradecido esto.
    TV: Sony XH85 de 43"
    Sonido: Denon DHT-S216
    Reproductores: Panasonic DP-UB820 + Pioneer BDP-180

  8. #508
    sabio Avatar de Conrado77
    Fecha de ingreso
    19 dic, 15
    Ubicación
    Barcelona
    Mensajes
    2,302
    Agradecido
    10131 veces

    Predeterminado Re: Independence Day (Roland Emmerich, 1996) y secuela

    Para los que usáis PowerDVD 17 o ArcSoft TotalMedia Theatre 6.7.1.199: si algunos BD(s) no se abren es porque el programa no está actualizado. En el caso de TotalMedia este software fue abandonado por ArcSoft en 2014. Sin embargo, para mí es el mejor reproductor por software tanto de DVD (los abre todos) como de BD. Ahora bien, ¿qué pasa con los muchos BD(s) que TotalMedia Theatre no abre? Pues existe una solución sencilla: pasar primero el BD al disco duro. ¿Cómo? Con alguno de los programas de pago que existen para tal fin (AnyDVD, DVDFab y poco más). Y una vez en el disco duro y sin protecciones se abren todos los BD(s) sin problemas. Además con este método el lector de Blu-ray del ordenador "sufre" menos. ¿Por qué? Pues porque pasar un BD-50 al HDD son unos 15-20 minutos (o más dependiendo del modelo de lector, pero no mucho más). Y luego ya te olvidas del disco físico y reproduces directamente desde el disco duro.

    En el caso de querer usar MPC-HD hay que pasar el BD al HDD primero sí o sí. MPC-HD no reproduce BD(s) directamente desde la unidad de Blu-ray.

    Aprovecho la ocasión para dejaros el BDInfo de Independence Day: Contraataque, edición española:

    Código:
    DISC INFO:
    
    Disc Title:     INDEPENDENCE_DAY_RESURGENCE
    Disc Size:      43.697.417.206 bytes
    Protection:     AACS
    BD-Java:        Yes
    BDInfo:         0.5.8
    
    PLAYLIST REPORT:
    
    Name:                   00800.MPLS
    Length:                 1:59:44.176 (h:m:s.ms)
    Size:                   33.308.774.400 bytes
    Total Bitrate:          37,09 Mbps
    
    VIDEO:
    
    Codec                   Bitrate             Description     
    -----                   -------             -----------     
    MPEG-4 AVC Video        25810 kbps          1080p / 23,976 fps / 16:9 / High Profile 4.1
    
    AUDIO:
    
    Codec                           Language        Bitrate         Description     
    -----                           --------        -------         -----------     
    DTS-HD Master Audio             English         5023 kbps       7.1 / 48 kHz / 5023 kbps / 24-bit (DTS Core: 5.1-ES / 48 kHz / 1509 kbps / 24-bit)
    DTS Audio                       Spanish         768 kbps        5.1 / 48 kHz / 768 kbps / 24-bit
    DTS Audio                       Italian         768 kbps        5.1 / 48 kHz / 768 kbps / 24-bit
    Dolby Digital Audio             Czech           448 kbps        5.1 / 48 kHz / 448 kbps
    Dolby Digital Audio             Hungarian       448 kbps        5.1 / 48 kHz / 448 kbps
    Dolby Digital Audio             Chinese         448 kbps        5.1 / 48 kHz / 448 kbps
    Dolby Digital Audio             Polish          448 kbps        5.1 / 48 kHz / 448 kbps
    Dolby Digital Audio             English         224 kbps        2.0 / 48 kHz / 224 kbps
    
    SUBTITLES:
    
    Codec                           Language        Bitrate         Description     
    -----                           --------        -------         -----------     
    Presentation Graphics           English         37,145 kbps                     
    Presentation Graphics           English         0,039 kbps                      
    Presentation Graphics           Spanish         33,652 kbps                     
    Presentation Graphics           Italian         34,949 kbps                     
    Presentation Graphics           Bulgarian       33,670 kbps                     
    Presentation Graphics           Croatian        35,341 kbps                     
    Presentation Graphics           Czech           34,004 kbps                     
    Presentation Graphics           Greek           40,311 kbps                     
    Presentation Graphics           Hungarian       37,928 kbps                     
    Presentation Graphics           Chinese         31,149 kbps                     
    Presentation Graphics           Polish          28,117 kbps                     
    Presentation Graphics           Romanian        34,430 kbps                     
    Presentation Graphics           Serbian         35,058 kbps                     
    Presentation Graphics           Slovak          31,645 kbps                     
    Presentation Graphics           Slovenian       30,899 kbps                     
    Presentation Graphics           Spanish         57,651 kbps                     
    Presentation Graphics           Italian         52,997 kbps                     
    
    FILES:
    
    Name            Time In         Length          Size            Total Bitrate   
    ----            -------         ------          ----            -------------   
    00600.M2TS      0:00:00.000     1:27:48.596     24.762.832.896  37.601          
    00601.M2TS      1:27:48.596     0:00:58.892     264.929.280     35.988          
    00603.M2TS      1:28:47.488     0:30:56.688     8.281.012.224   35.681          
    
    CHAPTERS:
    
    Number          Time In         Length          Avg Video Rate  Max 1-Sec Rate  Max 1-Sec Time  Max 5-Sec Rate  Max 5-Sec Time  Max 10Sec Rate  Max 10Sec Time  Avg Frame Size  Max Frame Size  Max Frame Time  
    ------          -------         ------          --------------  --------------  --------------  --------------  --------------  --------------  --------------  --------------  --------------  --------------  
    1               0:00:00.000     0:05:37.337     25.938 kbps     39.946 kbps     00:02:36.781    32.402 kbps     00:00:40.582    31.281 kbps     00:00:34.701    135.211 bytes   626.925 bytes   00:03:41.721    
    2               0:05:37.337     0:03:38.134     26.473 kbps     44.119 kbps     00:06:28.221    30.758 kbps     00:06:24.258    28.597 kbps     00:06:19.337    138.016 bytes   652.067 bytes   00:05:59.442    
    3               0:09:15.471     0:04:51.249     25.527 kbps     35.833 kbps     00:11:03.371    29.348 kbps     00:12:54.398    27.700 kbps     00:13:50.955    133.085 bytes   553.306 bytes   00:11:07.291    
    4               0:14:06.720     0:05:33.750     26.649 kbps     35.425 kbps     00:16:09.093    30.068 kbps     00:16:09.093    28.683 kbps     00:16:08.759    138.934 bytes   512.222 bytes   00:16:18.102    
    5               0:19:40.470     0:03:18.531     26.824 kbps     34.464 kbps     00:20:09.625    29.086 kbps     00:21:34.084    28.131 kbps     00:21:41.675    139.848 bytes   560.517 bytes   00:22:02.070    
    6               0:22:59.002     0:04:11.251     25.899 kbps     35.031 kbps     00:24:43.064    29.242 kbps     00:25:28.401    27.205 kbps     00:27:00.160    135.027 bytes   602.738 bytes   00:26:12.612    
    7               0:27:10.253     0:04:27.392     25.876 kbps     36.332 kbps     00:30:32.205    28.264 kbps     00:28:17.070    27.210 kbps     00:28:17.362    134.906 bytes   513.519 bytes   00:29:12.000    
    8               0:31:37.645     0:07:34.328     26.025 kbps     36.603 kbps     00:33:52.155    29.833 kbps     00:33:50.862    29.219 kbps     00:32:38.039    135.683 bytes   735.255 bytes   00:32:47.882    
    9               0:39:11.974     0:04:29.143     26.910 kbps     41.120 kbps     00:42:12.112    32.627 kbps     00:42:12.112    30.513 kbps     00:42:12.112    140.295 bytes   534.117 bytes   00:39:38.042    
    10              0:43:41.118     0:04:05.495     26.749 kbps     37.000 kbps     00:46:28.702    31.229 kbps     00:46:28.702    29.403 kbps     00:46:41.340    139.457 bytes   555.961 bytes   00:47:23.257    
    11              0:47:46.613     0:04:45.576     26.429 kbps     40.456 kbps     00:50:40.454    30.844 kbps     00:50:37.826    28.912 kbps     00:50:34.573    137.788 bytes   573.843 bytes   00:51:46.520    
    12              0:52:32.190     0:06:38.064     26.236 kbps     34.666 kbps     00:58:52.445    29.918 kbps     00:58:48.441    27.917 kbps     00:58:43.436    136.783 bytes   546.417 bytes   00:53:33.418    
    13              0:59:10.255     0:02:49.878     26.623 kbps     39.267 kbps     01:01:15.630    30.347 kbps     01:01:12.251    28.615 kbps     01:01:07.288    138.802 bytes   571.622 bytes   00:59:58.261    
    14              1:02:00.133     0:05:11.936     26.396 kbps     39.868 kbps     01:06:40.413    31.526 kbps     01:02:49.682    29.116 kbps     01:02:44.677    137.617 bytes   573.077 bytes   01:02:44.927    
    15              1:07:12.069     0:02:42.745     26.223 kbps     39.370 kbps     01:07:23.914    29.186 kbps     01:09:17.987    28.736 kbps     01:07:45.644    136.717 bytes   506.807 bytes   01:09:15.442    
    16              1:09:54.815     0:03:16.905     26.374 kbps     34.459 kbps     01:10:14.710    28.527 kbps     01:10:10.873    27.657 kbps     01:10:12.958    137.500 bytes   552.439 bytes   01:10:21.217    
    17              1:13:11.720     0:05:15.732     26.945 kbps     39.827 kbps     01:14:08.735    33.610 kbps     01:13:59.059    32.181 kbps     01:15:32.277    140.480 bytes   694.467 bytes   01:14:08.777    
    18              1:18:27.452     0:04:18.049     26.513 kbps     37.350 kbps     01:22:21.102    29.726 kbps     01:22:17.182    28.740 kbps     01:22:13.219    138.229 bytes   571.882 bytes   01:21:54.659    
    19              1:22:45.502     0:05:06.306     25.752 kbps     40.533 kbps     01:22:49.923    31.282 kbps     01:27:14.020    28.707 kbps     01:27:08.556    134.257 bytes   602.709 bytes   01:26:26.181    
    20              1:27:51.808     0:04:44.909     26.586 kbps     42.607 kbps     01:31:04.458    30.391 kbps     01:31:12.133    28.985 kbps     01:32:04.435    138.610 bytes   545.253 bytes   01:31:04.542    
    21              1:32:36.717     0:07:01.420     26.930 kbps     41.450 kbps     01:37:19.166    30.841 kbps     01:37:17.373    29.541 kbps     01:37:16.413    140.399 bytes   547.608 bytes   01:35:23.592    
    22              1:39:38.138     0:07:42.003     27.335 kbps     48.775 kbps     01:44:57.582    32.562 kbps     01:39:39.098    30.678 kbps     01:39:38.681    142.514 bytes   776.262 bytes   01:44:57.624    
    23              1:47:20.142     0:03:16.571     26.341 kbps     33.237 kbps     01:48:09.858    28.971 kbps     01:50:08.768    28.056 kbps     01:48:47.354    137.329 bytes   561.078 bytes   01:48:10.734    
    24              1:50:36.713     0:09:07.463     18.288 kbps     33.197 kbps     01:53:46.069    29.211 kbps     01:53:43.816    26.608 kbps     01:53:42.065    95.351 bytes    580.744 bytes   01:58:02.492    
    
    QUICK SUMMARY:
    
    Disc Title: INDEPENDENCE_DAY_RESURGENCE
    Disc Size: 43.697.417.206 bytes
    Protection: AACS
    BD-Java: Yes
    Playlist: 00800.MPLS
    Size: 33.308.774.400 bytes
    Length: 1:59:44.176
    Total Bitrate: 37,09 Mbps
    Video: MPEG-4 AVC Video / 25810 kbps / 1080p / 23,976 fps / 16:9 / High Profile 4.1
    Audio: English / DTS-HD Master Audio / 7.1 / 48 kHz / 5023 kbps / 24-bit (DTS Core: 5.1-ES / 48 kHz / 1509 kbps / 24-bit)
    Audio: Spanish / DTS Audio / 5.1 / 48 kHz / 768 kbps / 24-bit
    Audio: Italian / DTS Audio / 5.1 / 48 kHz / 768 kbps / 24-bit
    Audio: Czech / Dolby Digital Audio / 5.1 / 48 kHz / 448 kbps
    Audio: Hungarian / Dolby Digital Audio / 5.1 / 48 kHz / 448 kbps
    Audio: Chinese / Dolby Digital Audio / 5.1 / 48 kHz / 448 kbps
    Audio: Polish / Dolby Digital Audio / 5.1 / 48 kHz / 448 kbps
    Audio: English / Dolby Digital Audio / 2.0 / 48 kHz / 224 kbps
    Subtitle: English / 37,145 kbps
    Subtitle: English / 0,039 kbps
    Subtitle: Spanish / 33,652 kbps
    Subtitle: Italian / 34,949 kbps
    Subtitle: Bulgarian / 33,670 kbps
    Subtitle: Croatian / 35,341 kbps
    Subtitle: Czech / 34,004 kbps
    Subtitle: Greek / 40,311 kbps
    Subtitle: Hungarian / 37,928 kbps
    Subtitle: Chinese / 31,149 kbps
    Subtitle: Polish / 28,117 kbps
    Subtitle: Romanian / 34,430 kbps
    Subtitle: Serbian / 35,058 kbps
    Subtitle: Slovak / 31,645 kbps
    Subtitle: Slovenian / 30,899 kbps
    Subtitle: Spanish / 57,651 kbps
    Subtitle: Italian / 52,997 kbps
    Última edición por Conrado77; 14/12/2017 a las 05:07
    gymnos ha agradecido esto.
    TV: Sony XH85 de 43"
    Sonido: Denon DHT-S216
    Reproductores: Panasonic DP-UB820 + Pioneer BDP-180

  9. #509
    adicto
    Fecha de ingreso
    04 oct, 17
    Ubicación
    Sevilla
    Mensajes
    206
    Agradecido
    249 veces

    Predeterminado Re: Independence Day (Roland Emmerich, 1996) y secuela

    Hola, el steelbook italiano de la edicion 20th anniversary tiene audio castellano? Segun amazon.it, solo lleva audio italiano y ingles. Pero como la edicion espanola lleva italiano tambien, pensaba que a lo mejor son los mismos discos?
    Gracias.
    Estoy aprendiendo español y aún no lo hablo muy bien. Mientras lo hago, disculpad mi forma de escribir y expresarme. Gracias :]

  10. #510
    Super Moderador Avatar de repopo
    Fecha de ingreso
    13 nov, 03
    Mensajes
    23,365
    Agradecido
    33992 veces

    Predeterminado Re: Independence Day (Roland Emmerich, 1996) y secuela

    No puedo responderte de primera mano, pero segun el DVDProfiler, la informacion de Amazon es correcta. Solo ingles e italiano. Y es una informacion proporcionada por los usuarios, no por la distribuidora. En este caso, y viendo otros datos que incluyen en la ficha, me parece fiable.

    Por cierto, la edicion española 20 aniversario NO contiene italiano. Si lo incluia la primera edicion, la de 2006.
    Última edición por repopo; 24/08/2018 a las 18:24

  11. #511
    maestro
    Fecha de ingreso
    16 ene, 09
    Ubicación
    Torrelles de Llobregat
    Mensajes
    1,094
    Agradecido
    864 veces

    Predeterminado Re: Independence Day (Roland Emmerich, 1996) y secuela

    Cita Iniciado por Mr.Vorhees Ver mensaje
    Hola, el steelbook italiano de la edicion 20th anniversary tiene audio castellano? Segun amazon.it, solo lleva audio italiano y ingles. Pero como la edicion espanola lleva italiano tambien, pensaba que a lo mejor son los mismos discos?
    Gracias.
    mírate el post 380 de éste hilo...

  12. #512
    freak Avatar de alexf187
    Fecha de ingreso
    01 jun, 08
    Ubicación
    Vigo
    Mensajes
    747
    Agradecido
    762 veces

    Predeterminado Re: Independence Day (Roland Emmerich, 1996) y secuela

    Cita Iniciado por repopo Ver mensaje
    No puedo responderte de primera mano, pero segun el DVDProfiler, la informacion de Amazon es correcta. Solo ingles e italiano. Y es una informacion proporcionada por los usuarios, no por la distribuidora. En este caso, y viendo otros datos que incluyen en la ficha, me parece fiable.

    Por cierto, la edicion española 20 aniversario NO contiene italiano. Si lo incluia la primera edicion, la de 2006.
    La edición española 20 aniversario SI contiene italiano, por lo menos fue así cuando lo compre en el 2016, y por eso actualice la ficha de blu-ray.com el día que compre la edición:

    Independence Day Edición 20º Aniversario Blu-ray Spain | blu-ray.com

    Se puede ver en el Bdinfo compartido por Conrado77 mas arriba que el disco tiene Italiano:

    Independence Day (Roland Emmerich, 1996) y secuela

    Dicho esto no se si la Fox cambio algo desde entonces y ahora viene sin italiano o si para Italia opto por usar otro disco.
    Última edición por alexf187; 24/08/2018 a las 16:14

  13. #513
    Super Moderador Avatar de repopo
    Fecha de ingreso
    13 nov, 03
    Mensajes
    23,365
    Agradecido
    33992 veces

    Predeterminado Re: Independence Day (Roland Emmerich, 1996) y secuela

    Por mi parte, prevalece la informacion que das tu sobre la mia. La tuya (y la de Conrado77) es de primera mano, la mia no. Gracias.
    alexf187 ha agradecido esto.

  14. #514
    freak Avatar de biri1978
    Fecha de ingreso
    03 dic, 07
    Ubicación
    Vigo
    Mensajes
    991
    Agradecido
    68 veces

    Predeterminado Re: Independence Day (Roland Emmerich, 1996) y secuela

    hola, queria saber si esta edicion es la restaurada en 4k como la del 20 aniversario

    https://www.amazon.es/gp/product/B07...&tag=b053fi-21

    viendo los extras parece que si pero no me fio, si alguien lo sabe se lo agradeceria,
    saludos

  15. #515
    sabio Avatar de edumix
    Fecha de ingreso
    22 dic, 11
    Mensajes
    2,320
    Agradecido
    3047 veces

    Predeterminado Re: Independence Day (Roland Emmerich, 1996) y secuela

    Independence Day [Edición Especial Coleccionista] en BluRay por 48.35 € (precio mínimo)

    Edición Francesa con Castellano y Disco de Extras.
    Incluye Libreto y réplica de la Nave Alien.


    melting ha agradecido esto.

+ Responder tema
Página 21 de 21 PrimerPrimer ... 11192021

Etiquetas para este tema

Permisos de publicación

  • No puedes crear nuevos temas
  • No puedes responder temas
  • No puedes subir archivos adjuntos
  • No puedes editar tus mensajes
  •  
Powered by vBulletin® Version 4.2.1
Copyright © 2021 vBulletin Solutions, Inc. All rights reserved.
SEO by vBSEO
Image resizer by SevenSkins