Regístrate gratis¡Bienvenido a mundodvd! Regístrate ahora y accede a todos los contenidos de la web. El registro es totalmente gratuito y obtendrás muchas ventajas.
Blu-ray, DVD y cine en casa
Regístrate gratis!
Registro en mundodvd
+ Responder tema
Página 1 de 2 12 ÚltimoÚltimo
Resultados 1 al 25 de 32

Tema: Warlock, el brujo (Warlock, 1989, Steve Miner)

  1. #1
    Cinéfilo austero Avatar de Narmer
    Fecha de ingreso
    11 Aug, 10
    Ubicación
    Alicante
    Mensajes
    11,462
    Agradecido
    14693 veces

    Predeterminado Warlock, el brujo (Warlock, 1989, Steve Miner)

    Mañana sale a la venta el bd de este clásico editado por Llamentol, con estas características... a ver si alguien se atreve y nos dice que tal.

    Contenido 1 Disco
    Imagen 1.85:1
    Audio Inglés - Dolby Digital 2.0
    Castellano - Dolby Digital 2.0
    Subtítulos Castellano, Portugués
    Precio 13,30 €



    Esta es la carátula, sin lo de "Collectors edition" y el logo de al lado.
    Última edición por Narmer; 29/06/2015 a las 14:11
    Trek, LOBOMORDEDOR y MacReady han agradecido esto.
    "Es peligroso, Frodo, cruzar tu puerta. Pones tu pie en el camino, y si no cuidas tus pasos, nunca sabes a dónde te pueden llevar" -Bilbo Bolsón-

  2. #2
    gurú Avatar de Mulholland Dr.
    Fecha de ingreso
    23 Dec, 09
    Mensajes
    4,490
    Agradecido
    4074 veces

    Predeterminado Re: Warlock el Brujo (Steve Miner, 1991)

    Cita Iniciado por Narmer Ver mensaje

    Esta es la carátula, sin lo de "Collectors edition" y el logo de al lado.
    Y el disco, con el añadido de audio y subtítulos en castellano

  3. #3
    sabio Avatar de Browen
    Fecha de ingreso
    22 Mar, 13
    Ubicación
    Valencia
    Mensajes
    2,306
    Agradecido
    7630 veces

    Predeterminado Re: Warlock el Brujo (Steve Miner, 1991)

    Yo si la veo la semana que viene igual la pillo,porque mira que me gustaba a mi esta pelicula de pequeña
    Hazlo o no lo hagas,pero no lo intentes

  4. #4
    ATHLETIC !!!!!!! Avatar de Necrophobic
    Fecha de ingreso
    20 Nov, 07
    Mensajes
    3,882
    Agradecido
    4706 veces

    Predeterminado Re: Warlock el Brujo (Steve Miner, 1991)

    A mi tambien me encantaba de pequeño esta pelicula

  5. #5
    maestro Avatar de Jo4nn
    Fecha de ingreso
    13 Jun, 05
    Ubicación
    Sant Feliu de Llobregat (BCN)
    Mensajes
    1,919
    Agradecido
    931 veces

    Predeterminado Re: Warlock el Brujo (Steve Miner, 1991)

    Hay alguna posibilidad de que sea BD-R?

    Seguramente la compre en ECI si la encuentro y no me gustaría llevarme una sorpresa al abrirla.

  6. #6
    maestro Avatar de Slinker
    Fecha de ingreso
    20 Feb, 07
    Mensajes
    1,502
    Agradecido
    3061 veces

    Predeterminado Re: Warlock el Brujo (Steve Miner, 1991)

    Tiene todas las posibilidades de que sea BD-R.

  7. #7
    coleccionista Avatar de hulk_31
    Fecha de ingreso
    30 Dec, 09
    Ubicación
    Andalucia
    Mensajes
    21,964
    Agradecido
    22171 veces

    Predeterminado Re: Warlock el Brujo (Steve Miner, 1991)

    Cita Iniciado por Slinker Ver mensaje
    Tiene todas las posibilidades de que sea BD-R.
    Confirmo que es Bd-R
    ChuckyGoo, Jo4nn, Trek y 3 usuarios han agradecido esto.

  8. #8
    Cinéfilo austero Avatar de Narmer
    Fecha de ingreso
    11 Aug, 10
    Ubicación
    Alicante
    Mensajes
    11,462
    Agradecido
    14693 veces

    Predeterminado Re: Warlock el Brujo (Steve Miner, 1991)

    Cita Iniciado por hulk_31 Ver mensaje
    Confirmo que es Bd-R
    Hace unas semanas me compré el dvd que salió este año, pone que es de 7artpictures, y se ve bastante bien, no sé si lo tienes hulk, por hacer comparativa, pero creo que no puede mejorar demasiado el bd.
    "Es peligroso, Frodo, cruzar tu puerta. Pones tu pie en el camino, y si no cuidas tus pasos, nunca sabes a dónde te pueden llevar" -Bilbo Bolsón-

  9. #9
    coleccionista Avatar de hulk_31
    Fecha de ingreso
    30 Dec, 09
    Ubicación
    Andalucia
    Mensajes
    21,964
    Agradecido
    22171 veces

    Predeterminado Re: Warlock el Brujo (Steve Miner, 1991)

    No. No lo tengo. Si quieres y puedes cuelga tu las capturas del DVD indicando el tiempo y yo haré las mismas del bd.

  10. #10
    coleccionista Avatar de hulk_31
    Fecha de ingreso
    30 Dec, 09
    Ubicación
    Andalucia
    Mensajes
    21,964
    Agradecido
    22171 veces

    Predeterminado Re: Warlock el Brujo (Steve Miner, 1991)

    Unas capturas, mañana a ver si la veo y opino del audio y demás.
    Miniaturas adjuntadas Miniaturas adjuntadas 00001.m2ts_snapshot_00.04.25_-2015.07.04_22.20.23-.png   00001.m2ts_snapshot_00.05.22_-2015.07.04_22.20.38-.png   00001.m2ts_snapshot_00.10.16_-2015.07.04_22.20.54-.png   00001.m2ts_snapshot_00.12.51_-2015.07.04_22.21.03-.png   00001.m2ts_snapshot_00.19.27_-2015.07.04_22.21.14-.png  

    00001.m2ts_snapshot_00.55.50_-2015.07.04_22.21.26-.png  
    george_crow y Narmer han agradecido esto.

  11. #11
    Repelús Mulder Avatar de riddick
    Fecha de ingreso
    09 Sep, 02
    Mensajes
    3,322
    Agradecido
    1177 veces

    Predeterminado Re: Warlock, el brujo (Warlock, 1989, Steve Miner)

    Yo la he probado por encima y la imagen me parece bastante buena,el audio en castellano correcto y doblaje original
    Que recuerdos de esta película.....me encanta.....a ver que tal la sincro de los subtítulos
    Conrado77 ha agradecido esto.
    TV Samsung SUHD 49KS7000/ Blu Ray UHD Panasonic UB700/Amplificador Yamaha RX-473
    --------------------------------------------------------------------------------------------------------------
    ---------------------------------------------------------------------------------------------------------

  12. #12
    experto
    Fecha de ingreso
    12 Dec, 10
    Mensajes
    442
    Agradecido
    314 veces

    Predeterminado Re: Warlock, el brujo (Warlock, 1989, Steve Miner)

    Bluray Alemán

    Código:
    Disc Title:     Warlock, el brujo (1989)
    Disc Size:      19.302.099.600 bytes
    Protection:     AACS
    BD-Java:        No
    Extras:         50Hz Content
    BDInfo:         0.5.8
    
    PLAYLIST REPORT:
    
    Name:                   00005.MPLS
    Length:                 1:43:13.562 (h:m:s.ms)
    Size:                   18.059.630.592 bytes
    Total Bitrate:          23,33 Mbps
    
    VIDEO:
    
    Codec                   Bitrate             Description     
    -----                   -------             -----------     
    MPEG-4 AVC Video        18994 kbps          1080p / 23,976 fps / 16:9 / High Profile 4.1
    
    AUDIO:
    
    Codec                           Language        Bitrate         Description     
    -----                           --------        -------         -----------     
    DTS-HD Master Audio             German          1077 kbps       2.0 / 48 kHz / 1077 kbps / 16-bit (DTS Core: 2.0 / 48 kHz / 768 kbps / 16-bit)
    DTS-HD Master Audio             English         1802 kbps       2.0 / 48 kHz / 1802 kbps / 16-bit (DTS Core: 2.0 / 48 kHz / 1509 kbps / 16-bit)
    
    FILES:
    
    Name            Time In         Length          Size            Total Bitrate   
    ----            -------         ------          ----            -------------   
    00005.M2TS      0:00:00.000     1:43:12.561     18.059.612.160  23.331          
    00000.M2TS      1:43:12.561     0:00:01.000     18.432          147             
    
    CHAPTERS:
    
    Number          Time In         Length          Avg Video Rate  Max 1-Sec Rate  Max 1-Sec Time  Max 5-Sec Rate  Max 5-Sec Time  Max 10Sec Rate  Max 10Sec Time  Avg Frame Size  Max Frame Size  Max Frame Time  
    ------          -------         ------          --------------  --------------  --------------  --------------  --------------  --------------  --------------  --------------  --------------  --------------  
    1               0:00:00.000     0:08:24.378     18.971 kbps     43.292 kbps     00:07:43.421    30.475 kbps     00:02:51.713    27.742 kbps     00:07:36.455    98.897 bytes    435.799 bytes   00:07:26.529    
    2               0:08:24.378     0:09:32.863     21.793 kbps     42.267 kbps     00:08:59.622    30.168 kbps     00:16:40.624    27.253 kbps     00:14:35.457    113.618 bytes   462.469 bytes   00:16:35.786    
    3               0:17:57.242     0:10:05.146     22.144 kbps     40.641 kbps     00:27:46.456    34.232 kbps     00:27:25.060    32.397 kbps     00:27:22.223    115.450 bytes   452.234 bytes   00:27:25.435    
    4               0:28:02.389     0:07:40.001     21.574 kbps     40.170 kbps     00:29:48.995    34.846 kbps     00:29:48.953    30.576 kbps     00:34:55.968    112.479 bytes   546.142 bytes   00:35:05.770    
    5               0:35:42.390     0:08:41.062     19.057 kbps     36.124 kbps     00:40:57.288    33.393 kbps     00:40:57.371    32.703 kbps     00:40:54.994    99.356 bytes    445.635 bytes   00:39:39.752    
    6               0:44:23.452     0:11:26.560     20.322 kbps     40.365 kbps     00:49:21.166    33.749 kbps     00:47:46.405    30.826 kbps     00:47:44.570    105.948 bytes   484.895 bytes   00:47:49.950    
    7               0:55:50.013     0:07:22.483     19.235 kbps     36.981 kbps     00:56:33.014    30.064 kbps     01:00:24.871    27.561 kbps     01:00:23.870    100.282 bytes   554.964 bytes   01:00:30.293    
    8               1:03:12.497     0:08:36.516     18.656 kbps     36.198 kbps     01:08:31.816    28.385 kbps     01:08:30.022    26.630 kbps     01:08:24.809    97.263 bytes    397.566 bytes   01:03:26.636    
    9               1:11:49.013     0:12:22.450     15.829 kbps     32.345 kbps     01:22:41.498    24.984 kbps     01:21:53.825    22.691 kbps     01:22:36.534    82.526 bytes    403.957 bytes   01:23:03.728    
    10              1:24:11.463     0:08:07.320     17.960 kbps     35.429 kbps     01:27:39.879    31.065 kbps     01:27:38.836    27.873 kbps     01:27:35.917    93.634 bytes    330.604 bytes   01:27:52.058    
    11              1:32:18.783     0:05:18.568     18.179 kbps     37.069 kbps     01:34:27.495    34.015 kbps     01:34:29.622    33.369 kbps     01:34:25.284    94.777 bytes    518.896 bytes   01:32:53.192    
    12              1:37:37.351     0:05:35.209     11.745 kbps     28.603 kbps     01:37:53.826    21.058 kbps     01:37:44.817    20.800 kbps     01:37:44.817    61.234 bytes    355.360 bytes   01:37:45.109    
    13              1:43:12.561     0:00:01.001     57 kbps         0 kbps          00:00:00.000    0 kbps          00:00:00.000    0 kbps          00:00:00.000    313 bytes       317 bytes       01:43:13.520    
    
    STREAM DIAGNOSTICS:
    
    File            PID             Type            Codec           Language                Seconds                 Bitrate                 Bytes           Packets         
    ----            ---             ----            -----           --------                --------------          --------------          -------------   -----           
    00005.M2TS      4113 (0x1011)   0x1B            AVC                                     6192,478                18.997                  14.704.988.253  80.005.269      
    00005.M2TS      4352 (0x1100)   0x86            DTS-HD MA       deu (German)            6192,478                1.077                   833.855.808     5.136.872       
    00005.M2TS      4353 (0x1101)   0x86            DTS-HD MA       eng (English)           6192,478                1.802                   1.394.795.740   8.710.702       
    00000.M2TS      4113 (0x1011)   0x1B            AVC                                     0,876                   88                      9.613           60
    Última edición por seriex; 05/07/2015 a las 12:51
    Conrado77 ha agradecido esto.

  13. #13
    coleccionista Avatar de hulk_31
    Fecha de ingreso
    30 Dec, 09
    Ubicación
    Andalucia
    Mensajes
    21,964
    Agradecido
    22171 veces

    Predeterminado Re: Warlock, el brujo (Warlock, 1989, Steve Miner)

    Bd info BD Español

    Código:
    DISC INFO:
    
    
    Disc Title:     WARLOCK BD
    Disc Size:      20.614.606.740 bytes
    Protection:     AACS
    BD-Java:        No
    Extras:         50Hz Content
    BDInfo:         0.5.8
    
    
    PLAYLIST REPORT:
    
    
    Name:                   00001.MPLS
    Length:                 1:42:37.025 (h:m:s.ms)
    Size:                   20.450.770.944 bytes
    Total Bitrate:          26,57 Mbps
    
    
    VIDEO:
    
    
    Codec                   Bitrate             Description     
    -----                   -------             -----------     
    MPEG-2 Video            24995 kbps          1080p / 23,976 fps / 16:9
    
    
    AUDIO:
    
    
    Codec                           Language        Bitrate         Description     
    -----                           --------        -------         -----------     
    Dolby Digital Audio             Spanish         128 kbps        2.0 / 48 kHz / 128 kbps
    Dolby Digital Audio             English         192 kbps        2.0 / 48 kHz / 192 kbps
    
    
    SUBTITLES:
    
    
    Codec                           Language        Bitrate         Description     
    -----                           --------        -------         -----------     
    Presentation Graphics           Spanish         14,807 kbps                     
    Presentation Graphics           Portuguese      14,857 kbps
    Conrado77 ha agradecido esto.

  14. #14
    experto
    Fecha de ingreso
    12 Dec, 10
    Mensajes
    442
    Agradecido
    314 veces

    Predeterminado Re: Warlock, el brujo (Warlock, 1989, Steve Miner)

    Cita Iniciado por hulk_31 Ver mensaje
    Bd info BD Español

    Código:
    DISC INFO:
    
    
    Disc Title:     WARLOCK BD
    Disc Size:      20.614.606.740 bytes
    Protection:     AACS
    BD-Java:        No
    Extras:         50Hz Content
    BDInfo:         0.5.8
    
    
    PLAYLIST REPORT:
    
    
    Name:                   00001.MPLS
    Length:                 1:42:37.025 (h:m:s.ms)
    Size:                   20.450.770.944 bytes
    Total Bitrate:          26,57 Mbps
    
    
    VIDEO:
    
    
    Codec                   Bitrate             Description     
    -----                   -------             -----------     
    MPEG-2 Video            24995 kbps          1080p / 23,976 fps / 16:9
    
    
    AUDIO:
    
    
    Codec                           Language        Bitrate         Description     
    -----                           --------        -------         -----------     
    Dolby Digital Audio             Spanish         128 kbps        2.0 / 48 kHz / 128 kbps
    Dolby Digital Audio             English         192 kbps        2.0 / 48 kHz / 192 kbps
    
    
    SUBTITLES:
    
    
    Codec                           Language        Bitrate         Description     
    -----                           --------        -------         -----------     
    Presentation Graphics           Spanish         14,807 kbps                     
    Presentation Graphics           Portuguese      14,857 kbps
    el audio del bd español es desde luego lamentable, que calidad más baja tanto en la pista en castellano como en la inglés.

    A ver si encuentro el bd español por la red para hacer una comparativa de la imagen que debe tener lo suyo también, a saber de donde habrán sacado la fuente (lo digo por el usar mpeg2 como codec)

    Un saludo

  15. #15
    coleccionista Avatar de hulk_31
    Fecha de ingreso
    30 Dec, 09
    Ubicación
    Andalucia
    Mensajes
    21,964
    Agradecido
    22171 veces

    Predeterminado Re: Warlock, el brujo (Warlock, 1989, Steve Miner)

    Cita Iniciado por seriex Ver mensaje
    A ver si encuentro el bd español por la red para hacer una comparativa de la imagen que debe tener lo suyo también, a saber de donde habrán sacado la fuente (lo digo por el usar mpeg2 como codec)
    Busca, igual lo encuentras....

    La verdad, la he probado por encima y no tiene mal aspecto. Si, utiliza el codec MPEG2 pero a una tasa de bit rate normal así que tampoco lo veo tan grave, hay muchos BDS de los primeros de sony con ese codec y son de 5 estrellas. El audio castellano? para que inflarlo para que indique DTSHD y chorradas por el estilo, es el que hay y mejor dejarlo tal cual.
    Conrado77 ha agradecido esto.

  16. #16
    Cinéfilo austero Avatar de Narmer
    Fecha de ingreso
    11 Aug, 10
    Ubicación
    Alicante
    Mensajes
    11,462
    Agradecido
    14693 veces

    Predeterminado Re: Warlock, el brujo (Warlock, 1989, Steve Miner)

    Cita Iniciado por hulk_31 Ver mensaje
    Busca, igual lo encuentras....

    La verdad, la he probado por encima y no tiene mal aspecto. Si, utiliza el codec MPEG2 pero a una tasa de bit rate normal así que tampoco lo veo tan grave, hay muchos BDS de los primeros de sony con ese codec y son de 5 estrellas. El audio castellano? para que inflarlo para que indique DTSHD y chorradas por el estilo, es el que hay y mejor dejarlo tal cual.
    No sé muy bien como hacer las capturas para que tengan la calidad adecuada para comparar el dvd al bd... no tengo unidad de cd en el pc. Con la ps3 se pueden hacer capturas de imagen??
    "Es peligroso, Frodo, cruzar tu puerta. Pones tu pie en el camino, y si no cuidas tus pasos, nunca sabes a dónde te pueden llevar" -Bilbo Bolsón-

  17. #17
    coleccionista Avatar de hulk_31
    Fecha de ingreso
    30 Dec, 09
    Ubicación
    Andalucia
    Mensajes
    21,964
    Agradecido
    22171 veces

    Predeterminado Re: Warlock, el brujo (Warlock, 1989, Steve Miner)

    Vista, en resumen contento con ella obviando lo del formato Bd-r. El subtitulado está bien sincronizado pero para mi se nota que tira a latino, lo podrian haber editado. El sonido castellano cumple mas o menos pero se nota que está editado ya que hay varios fragmentos que cambian de volumen y supongo que añadirian trozos del ingles, de ahí el cambio de volumen y tonalidad, pero lo dicho, cumple. La pelicula, aunque no sea el hilo, recomiendo que quien no le tenga cariño o nostalgia por haberla visto de pequeño, que corra y no se le ocurra meterla en el reproductor, ¡vaya efectos especiales!
    Trek, Vaskobasten y ChuacheFan han agradecido esto.

  18. #18
    adicto
    Fecha de ingreso
    04 Jun, 05
    Mensajes
    242
    Agradecido
    94 veces

    Predeterminado Re: Warlock, el brujo (Warlock, 1989, Steve Miner)

    También ha aparecido al mercado la segunda entrega de esta saga

    Código:
    Disc Title:     WARLOCK  2 BD
    Disc Size:      19.665.931.260 bytes
    Protection:     AACS
    BD-Java:        No
    Extras:         50Hz Content
    BDInfo:         0.5.8
    
    
    Notes:          
    
    
    BDINFO HOME:
      Cinema Squid
        http://www.cinemasquid.com/blu-ray/tools/bdinfo
    
    
    INCLUDES FORUMS REPORT FOR:
      AVS Forum Blu-ray Audio and Video Specifications Thread
        http://www.avsforum.com/avs-vb/showthread.php?t=1155731
    
    
    
    
    ********************
    PLAYLIST: 00003.MPLS
    ********************
    
    
    <--- BEGIN FORUMS PASTE --->
    
    Código:
                                                                                                                    Total   Video                                             
    Title                                                           Codec   Length  Movie Size      Disc Size       Bitrate Bitrate Main Audio Track                          Secondary Audio Track
    -----                                                           ------  ------- --------------  --------------  ------- ------- ------------------                        ---------------------
    00003.MPLS                                                      MPEG-2  1:37:56 19.503.206.400  19.665.931.260  26,55   24,98   DD AC3 2.0 128Kbps
    Código:
    
    DISC INFO:
    
    
    Disc Title:     WARLOCK  2 BD
    Disc Size:      19.665.931.260 bytes
    Protection:     AACS
    BD-Java:        No
    Extras:         50Hz Content
    BDInfo:         0.5.8
    
    
    PLAYLIST REPORT:
    
    
    Name:                   00003.MPLS
    Length:                 1:37:56.036 (h:m:s.ms)
    Size:                   19.503.206.400 bytes
    Total Bitrate:          26,55 Mbps
    
    
    VIDEO:
    
    
    Codec                   Bitrate             Description     
    -----                   -------             -----------     
    MPEG-2 Video            24977 kbps          1080p / 23,976 fps / 16:9
    
    
    AUDIO:
    
    
    Codec                           Language        Bitrate         Description     
    -----                           --------        -------         -----------     
    Dolby Digital Audio             Spanish         128 kbps        2.0 / 48 kHz / 128 kbps
    Dolby Digital Audio             English         192 kbps        2.0 / 48 kHz / 192 kbps
    
    
    SUBTITLES:
    
    
    Codec                           Language        Bitrate         Description     
    -----                           --------        -------         -----------     
    Presentation Graphics           Spanish         14,069 kbps                     
    Presentation Graphics           Portuguese      15,028 kbps                     
    
    
    FILES:
    
    
    Name            Time In         Length          Size            Total Bitrate   
    ----            -------         ------          ----            -------------   
    00004.M2TS      0:00:00.000     1:37:56.036     19.503.206.400  26.553          
    
    
    CHAPTERS:
    
    
    Number          Time In         Length          Avg Video Rate  Max 1-Sec Rate  Max 1-Sec Time  Max 5-Sec Rate  Max 5-Sec Time  Max 10Sec Rate  Max 10Sec Time  Avg Frame Size  Max Frame Size  Max Frame Time  
    ------          -------         ------          --------------  --------------  --------------  --------------  --------------  --------------  --------------  --------------  --------------  --------------  
    1               0:00:00.000     0:09:16.180     24.981 kbps     35.223 kbps     00:03:55.818    29.108 kbps     00:02:18.221    28.602 kbps     00:02:16.970    130.229 bytes   834.762 bytes   00:05:19.694    
    2               0:09:16.180     0:09:33.698     25.009 kbps     34.180 kbps     00:09:56.804    27.741 kbps     00:10:49.857    27.009 kbps     00:09:47.962    130.377 bytes   787.885 bytes   00:17:21.040    
    3               0:18:49.878     0:13:05.159     24.999 kbps     33.111 kbps     00:31:16.791    28.306 kbps     00:25:15.222    26.974 kbps     00:25:15.347    130.331 bytes   808.215 bytes   00:31:26.885    
    4               0:31:55.038     0:15:34.058     24.986 kbps     34.210 kbps     00:38:55.166    28.176 kbps     00:32:12.388    26.984 kbps     00:43:01.287    130.273 bytes   815.611 bytes   00:36:08.416    
    5               0:47:29.096     0:12:30.124     25.030 kbps     34.092 kbps     00:52:06.706    28.533 kbps     00:52:38.488    27.474 kbps     00:47:31.807    130.496 bytes   855.866 bytes   00:52:58.800    
    6               0:59:59.220     0:18:44.873     24.994 kbps     34.565 kbps     01:18:23.865    28.197 kbps     01:17:40.364    27.365 kbps     01:18:24.032    130.301 bytes   860.373 bytes   01:03:41.943    
    7               1:18:44.094     0:11:36.946     24.995 kbps     34.672 kbps     01:28:42.650    27.642 kbps     01:22:22.395    27.031 kbps     01:21:33.513    130.318 bytes   847.995 bytes   01:23:25.625    
    8               1:30:21.040     0:07:34.996     24.717 kbps     32.999 kbps     01:36:17.480    29.000 kbps     01:37:34.932    28.517 kbps     01:36:36.999    128.872 bytes   805.572 bytes   01:33:44.368    
    
    
    STREAM DIAGNOSTICS:
    
    
    File            PID             Type            Codec           Language                Seconds                 Bitrate                 Bytes           Packets         
    ----            ---             ----            -----           --------                --------------          --------------          -------------   -----           
    00004.M2TS      4113 (0x1011)   0x02            MPEG-2                                  5875,995                24.977                  18.345.556.909  99.786.144      
    00004.M2TS      4352 (0x1100)   0x81            AC3             spa (Spanish)           5875,995                128                     94.015.488      550.872         
    00004.M2TS      4353 (0x1101)   0x81            AC3             eng (English)           5875,995                192                     141.023.232     918.120         
    00004.M2TS      4608 (0x1200)   0x90            PGS             spa (Spanish)           5875,995                14                      10.333.757      61.673          
    00004.M2TS      4609 (0x1201)   0x90            PGS             por (Portuguese)        5875,995                15                      11.037.777      65.529
    <---- END FORUMS PASTE ----> QUICK SUMMARY: Disc Title: WARLOCK 2 BD Disc Size: 19.665.931.260 bytes Protection: AACS BD-Java: No Playlist: 00003.MPLS Size: 19.503.206.400 bytes Length: 1:37:56.036 Total Bitrate: 26,55 Mbps Video: MPEG-2 Video / 24977 kbps / 1080p / 23,976 fps / 16:9 Audio: Spanish / Dolby Digital Audio / 2.0 / 48 kHz / 128 kbps Audio: English / Dolby Digital Audio / 2.0 / 48 kHz / 192 kbps Subtitle: Spanish / 14,069 kbps Subtitle: Portuguese / 15,028 kbps ******************** PLAYLIST: 00002.MPLS ******************** <--- BEGIN FORUMS PASTE --->
    Código:
                                                                                                                    Total   Video                                             
    Title                                                           Codec   Length  Movie Size      Disc Size       Bitrate Bitrate Main Audio Track                          Secondary Audio Track
    -----                                                           ------  ------- --------------  --------------  ------- ------- ------------------                        ---------------------
    00002.MPLS                                                      AVC     0:01:00 159.111.168     19.665.931.260  21,21   20,10   DD AC3 2.0 128Kbps
    Código:
    
    DISC INFO:
    
    
    Disc Title:     WARLOCK  2 BD
    Disc Size:      19.665.931.260 bytes
    Protection:     AACS
    BD-Java:        No
    Extras:         50Hz Content
    BDInfo:         0.5.8
    
    
    PLAYLIST REPORT:
    
    
    Name:                   00002.MPLS
    Length:                 0:01:00.000 (h:m:s.ms)
    Size:                   159.111.168 bytes
    Total Bitrate:          21,21 Mbps
    
    
    VIDEO:
    
    
    Codec                   Bitrate             Description     
    -----                   -------             -----------     
    MPEG-4 AVC Video        20104 kbps          1080i / 25 fps / 16:9 / High Profile 4.1
    
    
    AUDIO:
    
    
    Codec                           Language        Bitrate         Description     
    -----                           --------        -------         -----------     
    Dolby Digital Audio             Spanish         128 kbps        2.0 / 48 kHz / 128 kbps
    
    
    FILES:
    
    
    Name            Time In         Length          Size            Total Bitrate   
    ----            -------         ------          ----            -------------   
    00002.M2TS      0:00:00.000     0:01:00.000     159.111.168     21.215          
    
    
    CHAPTERS:
    
    
    Number          Time In         Length          Avg Video Rate  Max 1-Sec Rate  Max 1-Sec Time  Max 5-Sec Rate  Max 5-Sec Time  Max 10Sec Rate  Max 10Sec Time  Avg Frame Size  Max Frame Size  Max Frame Time  
    ------          -------         ------          --------------  --------------  --------------  --------------  --------------  --------------  --------------  --------------  --------------  --------------  
    1               0:00:00.000     0:01:00.000     20.104 kbps     31.451 kbps     00:00:08.840    23.059 kbps     00:00:21.200    21.602 kbps     00:00:00.120    100.518 bytes   368.772 bytes   00:00:09.120    
    
    
    STREAM DIAGNOSTICS:
    
    
    File            PID             Type            Codec           Language                Seconds                 Bitrate                 Bytes           Packets         
    ----            ---             ----            -----           --------                --------------          --------------          -------------   -----           
    00002.M2TS      4113 (0x1011)   0x1B            AVC                                     59,920                  20.131                  150.777.705     821.059         
    00002.M2TS      4352 (0x1100)   0x81            AC3             spa (Spanish)           59,920                  128                     958.976         5.619
    <---- END FORUMS PASTE ----> QUICK SUMMARY: Disc Title: WARLOCK 2 BD Disc Size: 19.665.931.260 bytes Protection: AACS BD-Java: No Playlist: 00002.MPLS Size: 159.111.168 bytes Length: 0:01:00.000 Total Bitrate: 21,21 Mbps Video: MPEG-4 AVC Video / 20104 kbps / 1080i / 25 fps / 16:9 / High Profile 4.1 Audio: Spanish / Dolby Digital Audio / 2.0 / 48 kHz / 128 kbps
    Última edición por ENORM; 08/07/2015 a las 18:04

  19. #19
    Caballero Renegado Avatar de darksaga
    Fecha de ingreso
    11 Mar, 09
    Ubicación
    Barcelona
    Mensajes
    1,452
    Agradecido
    1082 veces

    Predeterminado Re: Warlock, el brujo (Warlock, 1989, Steve Miner)

    Al ser BD-R, mejor me ahorro el dinero, ya que me hice un montaje yo mismo con el audio del DVD de Filmayer.

  20. #20
    adicto
    Fecha de ingreso
    02 Nov, 10
    Mensajes
    103
    Agradecido
    550 veces

    Predeterminado Re: Warlock, el brujo (Warlock, 1989, Steve Miner)

    Aprovechando el 3x2 de fnac, me pillé las dos partes de Warlock junto con Razas de noche. Como bien ha dicho el compañero hulk_31, la primera parte cumple bastante bien para ser un BD-R, pero ¿alguien ha probado a ver la segunda parte? Yo le eché un ojo por encima y creo que ese master no es HD ni de coña. Bajo mi punto de vista deja mucho que desear y si no sería porque quiero ambas películas de la saga y desde los tiempos del VHS no la he visto editada, tramitaría una devolución urgentísima. Si alguien puede arrojar más luz y compartir sus opiniones sobre la segunda parte, lo agradecería, la verdad.

  21. #21
    coleccionista Avatar de hulk_31
    Fecha de ingreso
    30 Dec, 09
    Ubicación
    Andalucia
    Mensajes
    21,964
    Agradecido
    22171 veces

    Predeterminado Re: Warlock, el brujo (Warlock, 1989, Steve Miner)

    Capturas de la segunda parte. Penosa edicion. Un DVD reescalado creo que se ve mejor.
    Miniaturas adjuntadas Miniaturas adjuntadas captura-de-pantalla-2015-07-28-07_14_27-pm-29963.png   captura-de-pantalla-2015-07-28-07_15_18-pm-12325.png   captura-de-pantalla-2015-07-28-07_15_46-pm-8679.png   captura-de-pantalla-2015-07-28-07_15_53-pm-9643.png   captura-de-pantalla-2015-07-28-07_16_03-pm-29654.png  

    captura-de-pantalla-2015-07-28-07_16_14-pm-3747.png   captura-de-pantalla-2015-07-28-07_16_20-pm-8566.png   captura-de-pantalla-2015-07-28-07_16_49-pm-26508.png  
    stephen y Bender_ han agradecido esto.

  22. #22
    sabio Avatar de stephen
    Fecha de ingreso
    24 Aug, 07
    Ubicación
    Barcelona
    Mensajes
    3,046
    Agradecido
    13846 veces

    Predeterminado Re: Warlock, el brujo (Warlock, 1989, Steve Miner)

    Tenia pensado comprarme la segunda parte esta semana por Tallers, pero visto lo visto, mejor se queda en la estantería. Me recuerda aquella primera edición de Cadena Perpetua, que la retiraron del mercado, la compre en su salida, y daba pena verla, era imagen de un mal DVD, lo mismo que esta de Warlock 2, evidentemente la devolví a ECI y me dijeron que había sido un error de la compañía, semanas después salió bien editada.
    Equipo
    Imagen: Samsung Serie F7000 3D 46"
    Video: Bluray Sony 3D BDP-S490 y Bluray multizona Toshiba BDX 2100KE
    Audio: Onkyo TX-SR 705 Certificado THX y equipo 5.1 columnas JBL

  23. #23
    The Final Frontier Avatar de Trek
    Fecha de ingreso
    30 Apr, 06
    Mensajes
    27,010
    Agradecido
    91789 veces

    Predeterminado Re: Warlock, el brujo (Warlock, 1989, Steve Miner)

    Si, pero el tema es ¿existe alguna edición en el mundo con mejor imagen?
    Yo tengo el dvd de z1 y es 1.33:1

  24. #24
    veterano malvado Avatar de PadreKarras
    Fecha de ingreso
    16 Nov, 05
    Mensajes
    11,044
    Agradecido
    22382 veces

    Predeterminado Re: Warlock, el brujo (Warlock, 1989, Steve Miner)

    Y el segundo tema sería... si no existe nada mejor que el dvd, para qué sacarla en blu-ray? Cuando haya un máster hd en condiciones sería el momento... pero ahora... parece nada más que sacacuartismo, aprovechando el lanzamiento de la 1, updateo dvd, lo meto en caja azul y a pescar...

    Por cierto, he visto en c.i. una edición con las dos partes en dvd, de la misma editora. Desconozco si irán dos discos, o las dos pelis en uno, y si será dvd-r o prensadete/s.

  25. #25
    restaurador Avatar de rantamplan
    Fecha de ingreso
    26 Feb, 06
    Mensajes
    2,301
    Agradecido
    5678 veces

    Predeterminado Re: Warlock, el brujo (Warlock, 1989, Steve Miner)

    Cita Iniciado por seriex Ver mensaje
    ...a saber de donde habrán sacado la fuente (lo digo por el usar mpeg2 como codec)
    La fuente es el BD alemán re-codificado a MPEG-2. Llamentol a diferencia de Resen, siempre re-codifica el vídeo, además usando MPEG-2. De esta forma se aseguran que no les sale ningún disco de doble capa y de paso evitan que reviews internacionales digan abiertamente que sus ediciones son bootleg (pirata) al comparar la gráfica de bitrate y observar que es idéntica a la de alguna otra edición foránea. Cosa que sí le ha pasado a Resen en más de una ocasión.
    Última edición por rantamplan; 29/07/2015 a las 05:11
    Mulholland Dr., 0z3l0t y Conrado77 han agradecido esto.
    ¿Buscas posters de cine o videojuegos?


+ Responder tema
Página 1 de 2 12 ÚltimoÚltimo

Permisos de publicación

  • No puedes crear nuevos temas
  • No puedes responder temas
  • No puedes subir archivos adjuntos
  • No puedes editar tus mensajes
  •  
Powered by vBulletin® Version 4.2.1
Copyright © 2017 vBulletin Solutions, Inc. All rights reserved.
SEO by vBSEO
Image resizer by SevenSkins