Regístrate gratis¡Bienvenido a mundodvd! Regístrate ahora y accede a todos los contenidos de la web. El registro es totalmente gratuito y obtendrás muchas ventajas.
Blu-ray, DVD y cine en casa
Regístrate gratis!
Registro en mundodvd
+ Responder tema
Resultados 1 al 3 de 3

Tema: "BOURNE" Análisis de toda la saga

  1. #1
    adicto Avatar de Iñarritu
    Fecha de ingreso
    27 Oct, 16
    Ubicación
    Madrid
    Mensajes
    160
    Agradecido
    364 veces

    Predeterminado "BOURNE" Análisis de toda la saga

    Estos son los estuches con los discos que aquí se analizan. "Jason Bourne" es la edición española, y el resto pertenecen al pack "The Bourne Collection - 4 Film" edición italiana, pero se trata de los mismos discos distribuidos en España.




    Las gráficas de los bitrates

    Bourne Identity


    Bourne Supremacy


    Bourne Ultimatum


    Bourne Legacy


    Jason Bourne


    Ahora vamos uno por uno, con un análisis detallado de las propiedades del Blu-ray y sus capturas de imagen.

    Bourne Identity
    Código:
    DISC INFO:
    
    Disc Title:     BOURNE_IDENT_G51
    Disc Size:      45.730.826.239 bytes
    Protection:     AACS
    BD-Java:        Yes
    BDInfo:         0.5.8
    
    PLAYLIST REPORT:
    
    Name:                   00000.MPLS
    Length:                 1:58:36.984 (h:m:s.ms)
    Size:                   33.763.276.800 bytes
    Total Bitrate:          37,95 Mbps
    
    (*) Indicates included stream hidden by this playlist.
    
    VIDEO:
    
    Codec                   Bitrate             Description     
    -----                   -------             -----------     
    VC-1 Video              24867 kbps          1080p / 23,976 fps / 16:9 / Advanced Profile 3
    VC-1 Video              754 kbps            480p / 23,976 fps / 4:3 / Advanced Profile 2
    * VC-1 Video            708 kbps            480p / 23,976 fps / 4:3 / Advanced Profile 2
    
    AUDIO:
    
    Codec                           Language        Bitrate         Description     
    -----                           --------        -------         -----------     
    DTS Audio                       Japanese        768 kbps        5.1 / 48 kHz / 768 kbps / 24-bit
    DTS-HD Master Audio             English         4313 kbps       5.1 / 48 kHz / 4313 kbps / 24-bit (DTS Core: 5.1 / 48 kHz / 1509 kbps / 24-bit)
    DTS Audio                       French          768 kbps        5.1 / 48 kHz / 768 kbps / 24-bit
    DTS Audio                       Italian         768 kbps        5.1 / 48 kHz / 768 kbps / 24-bit
    DTS Audio                       German          768 kbps        5.1 / 48 kHz / 768 kbps / 24-bit
    DTS Audio                       Spanish         768 kbps        5.1 / 48 kHz / 768 kbps / 24-bit
    Dolby Digital Audio             English         192 kbps        2.0 / 48 kHz / 192 kbps / DN -4dB / Dolby Surround
    DTS Express                     English         192 kbps        2.0 / 48 kHz / 192 kbps / 24-bit
    
    SUBTITLES:
    
    Codec                           Language        Bitrate         Description     
    -----                           --------        -------         -----------     
    Presentation Graphics           Japanese        14,870 kbps                     
    Presentation Graphics           English         27,294 kbps                     
    Presentation Graphics           French          23,761 kbps                     
    Presentation Graphics           Italian         23,239 kbps                     
    Presentation Graphics           German          26,084 kbps                     
    Presentation Graphics           Spanish         24,813 kbps                     
    Presentation Graphics           Dutch           23,730 kbps                     
    Presentation Graphics           Danish          23,526 kbps                     
    Presentation Graphics           Finnish         20,466 kbps                     
    Presentation Graphics           Korean          18,363 kbps                     
    Presentation Graphics           Norwegian       22,199 kbps                     
    Presentation Graphics           Portuguese      24,500 kbps                     
    Presentation Graphics           Swedish         21,854 kbps                     
    Presentation Graphics           Chinese         20,764 kbps                     
    Presentation Graphics           Japanese        31,805 kbps                     
    Presentation Graphics           English         59,789 kbps                     
    Presentation Graphics           French          57,646 kbps                     
    Presentation Graphics           Italian         55,186 kbps                     
    Presentation Graphics           German          63,556 kbps                     
    Presentation Graphics           Spanish         59,275 kbps                     
    Presentation Graphics           Japanese        13,061 kbps                     
    Presentation Graphics           English         19,065 kbps                     
    Presentation Graphics           French          16,769 kbps                     
    Presentation Graphics           Italian         16,145 kbps                     
    Presentation Graphics           German          19,469 kbps                     
    Presentation Graphics           Spanish         16,369 kbps                     
    Presentation Graphics           Japanese        1,162 kbps                      
    Presentation Graphics           English         1,477 kbps                      
    Presentation Graphics           French          1,207 kbps                      
    Presentation Graphics           Italian         1,585 kbps                      
    Presentation Graphics           German          1,464 kbps                      
    Presentation Graphics           Spanish         1,757 kbps                      
    
    FILES:
    
    Name            Time In         Length          Size            Total Bitrate   
    ----            -------         ------          ----            -------------   
    00009.M2TS      0:00:00.000     1:58:36.984     33.763.276.800  37.952          
    
    CHAPTERS:
    
    Number          Time In         Length          Avg Video Rate  Max 1-Sec Rate  Max 1-Sec Time  Max 5-Sec Rate  Max 5-Sec Time  Max 10Sec Rate  Max 10Sec Time  Avg Frame Size  Max Frame Size  Max Frame Time  
    ------          -------         ------          --------------  --------------  --------------  --------------  --------------  --------------  --------------  --------------  --------------  --------------  
    1               0:00:00.000     0:06:28.179     24.987 kbps     38.070 kbps     00:03:09.522    31.369 kbps     00:01:03.396    29.564 kbps     00:06:02.070    130.577 bytes   394.956 bytes   00:05:37.712    
    2               0:06:28.179     0:02:06.668     26.245 kbps     38.001 kbps     00:07:00.503    30.955 kbps     00:07:33.369    29.915 kbps     00:07:29.157    136.828 bytes   425.302 bytes   00:07:32.243    
    3               0:08:34.847     0:03:03.683     24.729 kbps     32.615 kbps     00:10:50.941    29.948 kbps     00:08:34.847    28.757 kbps     00:10:06.564    128.923 bytes   315.462 bytes   00:09:54.677    
    4               0:11:38.531     0:01:59.828     21.658 kbps     34.391 kbps     00:12:03.889    30.864 kbps     00:12:40.634    29.867 kbps     00:12:35.629    112.916 bytes   311.454 bytes   00:11:50.710    
    5               0:13:38.359     0:06:04.947     24.304 kbps     34.262 kbps     00:17:11.822    30.461 kbps     00:16:06.340    29.868 kbps     00:16:02.252    126.712 bytes   303.707 bytes   00:16:55.556    
    6               0:19:43.307     0:05:57.732     26.274 kbps     35.486 kbps     00:19:49.688    30.886 kbps     00:23:30.659    29.182 kbps     00:20:52.834    136.982 bytes   301.423 bytes   00:21:11.270    
    7               0:25:41.039     0:03:34.422     25.123 kbps     37.472 kbps     00:28:03.515    31.249 kbps     00:28:41.845    29.297 kbps     00:28:41.928    130.980 bytes   469.202 bytes   00:28:57.819    
    8               0:29:15.462     0:07:20.857     25.391 kbps     33.220 kbps     00:33:22.125    31.429 kbps     00:33:19.956    29.833 kbps     00:33:16.285    132.377 bytes   396.348 bytes   00:29:16.463    
    9               0:36:36.319     0:07:20.440     26.347 kbps     40.061 kbps     00:36:41.157    30.632 kbps     00:40:06.904    29.971 kbps     00:40:02.608    137.363 bytes   334.155 bytes   00:36:41.908    
    10              0:43:56.759     0:04:30.979     26.658 kbps     37.300 kbps     00:47:49.908    31.125 kbps     00:47:48.657    28.959 kbps     00:46:47.721    138.985 bytes   468.653 bytes   00:47:50.701    
    11              0:48:27.738     0:03:24.495     23.748 kbps     36.632 kbps     00:48:59.144    30.352 kbps     00:48:56.099    28.655 kbps     00:48:58.352    123.810 bytes   373.976 bytes   00:49:30.550    
    12              0:51:52.234     0:10:09.233     26.266 kbps     36.441 kbps     00:56:17.415    31.382 kbps     00:52:13.338    30.030 kbps     01:01:31.521    136.937 bytes   554.762 bytes   00:53:16.151    
    13              1:02:01.467     0:08:00.188     25.736 kbps     36.819 kbps     01:09:33.127    31.460 kbps     01:09:33.085    30.099 kbps     01:08:28.437    134.175 bytes   387.219 bytes   01:07:35.217    
    14              1:10:01.655     0:08:43.272     26.285 kbps     43.742 kbps     01:18:43.927    30.304 kbps     01:10:52.790    29.799 kbps     01:17:37.527    137.039 bytes   564.548 bytes   01:18:44.845    
    15              1:18:44.928     0:05:35.126     25.384 kbps     43.765 kbps     01:22:13.219    30.746 kbps     01:19:00.235    29.461 kbps     01:19:31.767    132.342 bytes   451.738 bytes   01:22:13.428    
    16              1:24:20.055     0:07:40.126     24.684 kbps     37.265 kbps     01:27:37.418    30.921 kbps     01:27:37.543    29.118 kbps     01:26:25.054    128.690 bytes   546.201 bytes   01:26:52.373    
    17              1:32:00.181     0:06:59.127     25.592 kbps     36.465 kbps     01:35:55.791    30.788 kbps     01:36:11.515    29.282 kbps     01:36:07.344    133.424 bytes   425.343 bytes   01:37:22.253    
    18              1:38:59.308     0:06:34.018     25.189 kbps     38.196 kbps     01:43:26.241    31.915 kbps     01:44:48.323    29.483 kbps     01:44:42.401    131.322 bytes   440.959 bytes   01:43:37.377    
    19              1:45:33.327     0:06:20.588     25.255 kbps     37.041 kbps     01:51:52.330    30.872 kbps     01:47:02.833    29.065 kbps     01:46:57.411    131.668 bytes   380.887 bytes   01:51:47.200    
    20              1:51:53.915     0:06:43.069     14.978 kbps     25.214 kbps     01:58:04.368    23.244 kbps     01:58:01.365    22.379 kbps     01:57:20.158    78.700 bytes    393.161 bytes   01:57:25.538    
    
    STREAM DIAGNOSTICS:
    
    File            PID             Type            Codec           Language                Seconds                 Bitrate                 Bytes           Packets         
    ----            ---             ----            -----           --------                --------------          --------------          -------------   -----           
    00009.M2TS      4113 (0x1011)   0xEA            VC-1                                    7116,901                24.867                  22.121.822.411  120.330.287     
    00009.M2TS      4352 (0x1100)   0x82            DTS             jpn (Japanese)          7116,901                768                     683.231.232     4.003.308       
    00009.M2TS      4353 (0x1101)   0x86            DTS-HD MA       eng (English)           7116,901                4.313                   3.837.324.632   21.965.055      
    00009.M2TS      4354 (0x1102)   0x82            DTS             fra (French)            7116,901                768                     683.231.232     4.003.308       
    00009.M2TS      4355 (0x1103)   0x82            DTS             ita (Italian)           7116,901                768                     683.231.232     4.003.308       
    00009.M2TS      4356 (0x1104)   0x82            DTS             deu (German)            7116,901                768                     683.231.232     4.003.308       
    00009.M2TS      4357 (0x1105)   0x82            DTS             spa (Spanish)           7116,901                768                     683.231.232     4.003.308       
    00009.M2TS      4358 (0x1106)   0x81            AC3             eng (English)           7116,901                192                     170.807.808     1.112.030       
    00009.M2TS      4608 (0x1200)   0x90            PGS             jpn (Japanese)          7116,901                15                      13.228.340      77.797          
    00009.M2TS      4609 (0x1201)   0x90            PGS             eng (English)           7116,901                27                      24.281.063      139.627         
    00009.M2TS      4610 (0x1202)   0x90            PGS             fra (French)            7116,901                24                      21.138.766      121.670         
    00009.M2TS      4611 (0x1203)   0x90            PGS             ita (Italian)           7116,901                23                      20.674.020      119.338         
    00009.M2TS      4612 (0x1204)   0x90            PGS             deu (German)            7116,901                26                      23.204.836      133.009         
    00009.M2TS      4613 (0x1205)   0x90            PGS             spa (Spanish)           7116,901                25                      22.074.212      127.007         
    00009.M2TS      4614 (0x1206)   0x90            PGS             nld (Dutch)             7116,901                24                      21.110.970      121.667         
    00009.M2TS      4615 (0x1207)   0x90            PGS             dan (Danish)            7116,901                24                      20.929.339      120.777         
    00009.M2TS      4616 (0x1208)   0x90            PGS             fin (Finnish)           7116,901                20                      18.206.900      105.923         
    00009.M2TS      4617 (0x1209)   0x90            PGS             kor (Korean)            7116,901                18                      16.336.211      95.801          
    00009.M2TS      4618 (0x120A)   0x90            PGS             nor (Norwegian)         7116,901                22                      19.748.494      114.352         
    00009.M2TS      4619 (0x120B)   0x90            PGS             por (Portuguese)        7116,901                25                      21.796.097      125.476         
    00009.M2TS      4620 (0x120C)   0x90            PGS             swe (Swedish)           7116,901                22                      19.441.778      112.712         
    00009.M2TS      4621 (0x120D)   0x90            PGS             zho (Chinese)           7116,901                21                      18.471.888      107.389         
    00009.M2TS      4622 (0x120E)   0x90            PGS             jpn (Japanese)          7116,901                32                      28.294.295      160.450         
    00009.M2TS      4623 (0x120F)   0x90            PGS             eng (English)           7116,901                60                      53.189.810      300.620         
    00009.M2TS      4624 (0x1210)   0x90            PGS             fra (French)            7116,901                58                      51.283.050      290.313         
    00009.M2TS      4625 (0x1211)   0x90            PGS             ita (Italian)           7116,901                55                      49.094.632      278.406         
    00009.M2TS      4626 (0x1212)   0x90            PGS             deu (German)            7116,901                64                      56.540.547      318.882         
    00009.M2TS      4627 (0x1213)   0x90            PGS             spa (Spanish)           7116,901                59                      52.732.805      298.220         
    00009.M2TS      4628 (0x1214)   0x90            PGS             jpn (Japanese)          7116,901                13                      11.619.720      65.867          
    00009.M2TS      4629 (0x1215)   0x90            PGS             eng (English)           7116,901                19                      16.960.554      95.559          
    00009.M2TS      4630 (0x1216)   0x90            PGS             fra (French)            7116,901                17                      14.918.368      84.561          
    00009.M2TS      4631 (0x1217)   0x90            PGS             ita (Italian)           7116,901                16                      14.363.276      81.582          
    00009.M2TS      4632 (0x1218)   0x90            PGS             deu (German)            7116,901                19                      17.319.926      97.587          
    00009.M2TS      4633 (0x1219)   0x90            PGS             spa (Spanish)           7116,901                16                      14.562.033      82.620          
    00009.M2TS      4634 (0x121A)   0x90            PGS             jpn (Japanese)          7116,901                1                       1.033.670       6.130           
    00009.M2TS      4635 (0x121B)   0x90            PGS             eng (English)           7116,901                1                       1.314.101       7.589           
    00009.M2TS      4636 (0x121C)   0x90            PGS             fra (French)            7116,901                1                       1.073.465       6.226           
    00009.M2TS      4637 (0x121D)   0x90            PGS             ita (Italian)           7116,901                2                       1.409.805       8.157           
    00009.M2TS      4638 (0x121E)   0x90            PGS             deu (German)            7116,901                1                       1.302.762       7.495           
    00009.M2TS      4639 (0x121F)   0x90            PGS             spa (Spanish)           7116,901                2                       1.563.016       9.040           
    00009.M2TS      6656 (0x1A00)   0xA2            DTS Express     eng (English)           7116,901                192                     170.809.344     1.000.836       
    00009.M2TS      6912 (0x1B00)   0xEA            VC-1                                    7116,901                754                     670.666.945     3.754.804       
    00009.M2TS      6913 (0x1B01)   0xEA            VC-1                                    7116,901                708                     630.153.036     3.534.810
    QUICK SUMMARY:
    Spoiler Spoiler:




    Spoiler Spoiler:

    Spoiler Spoiler:


    Bourne Supremacy
    Código:
    DISC INFO:
    
    Disc Title:     BOURNE_SUPREM_G51
    Disc Size:      45.001.003.377 bytes
    Protection:     AACS
    BD-Java:        Yes
    BDInfo:         0.5.8
    
    PLAYLIST REPORT:
    
    Name:                   00001.MPLS
    Length:                 1:48:31.505 (h:m:s.ms)
    Size:                   34.219.560.960 bytes
    Total Bitrate:          42,04 Mbps
    
    (*) Indicates included stream hidden by this playlist.
    
    VIDEO:
    
    Codec                   Bitrate             Description     
    -----                   -------             -----------     
    VC-1 Video              28031 kbps          1080p / 23,976 fps / 16:9 / Advanced Profile 3
    * VC-1 Video            2002 kbps           480p / 23,976 fps / 4:3 / Advanced Profile 2
    * VC-1 Video            155 kbps            480p / 23,976 fps / 16:9 / Advanced Profile 2
    
    AUDIO:
    
    Codec                           Language        Bitrate         Description     
    -----                           --------        -------         -----------     
    DTS Audio                       Japanese        768 kbps        5.1 / 48 kHz / 768 kbps / 24-bit
    DTS-HD Master Audio             English         4231 kbps       5.1 / 48 kHz / 4231 kbps / 24-bit (DTS Core: 5.1 / 48 kHz / 1509 kbps / 24-bit)
    DTS Audio                       French          768 kbps        5.1 / 48 kHz / 768 kbps / 24-bit
    DTS Audio                       Italian         768 kbps        5.1 / 48 kHz / 768 kbps / 24-bit
    DTS Audio                       German          768 kbps        5.1 / 48 kHz / 768 kbps / 24-bit
    DTS Audio                       Spanish         768 kbps        5.1 / 48 kHz / 768 kbps / 24-bit
    Dolby Digital Audio             English         192 kbps        2.0 / 48 kHz / 192 kbps / DN -4dB / Dolby Surround
    * DTS Express                   English         192 kbps        2.0 / 48 kHz / 192 kbps / 24-bit
    
    SUBTITLES:
    
    Codec                           Language        Bitrate         Description     
    -----                           --------        -------         -----------     
    Presentation Graphics           Japanese        13,643 kbps                     
    Presentation Graphics           English         24,677 kbps                     
    Presentation Graphics           French          20,779 kbps                     
    Presentation Graphics           Italian         19,554 kbps                     
    Presentation Graphics           German          22,693 kbps                     
    Presentation Graphics           Spanish         20,391 kbps                     
    Presentation Graphics           Dutch           18,807 kbps                     
    Presentation Graphics           Danish          19,136 kbps                     
    Presentation Graphics           Finnish         19,573 kbps                     
    Presentation Graphics           Korean          13,880 kbps                     
    Presentation Graphics           Norwegian       18,909 kbps                     
    Presentation Graphics           Portuguese      20,424 kbps                     
    Presentation Graphics           Swedish         18,342 kbps                     
    Presentation Graphics           Chinese         17,901 kbps                     
    Presentation Graphics           Japanese        24,121 kbps                     
    Presentation Graphics           English         43,808 kbps                     
    Presentation Graphics           French          42,053 kbps                     
    Presentation Graphics           Italian         43,265 kbps                     
    Presentation Graphics           German          48,773 kbps                     
    Presentation Graphics           Spanish         44,369 kbps                     
    Presentation Graphics           Japanese        43,199 kbps                     
    Presentation Graphics           English         71,382 kbps                     
    Presentation Graphics           French          63,509 kbps                     
    Presentation Graphics           Italian         59,461 kbps                     
    Presentation Graphics           German          66,366 kbps                     
    Presentation Graphics           Spanish         62,057 kbps                     
    Presentation Graphics           Japanese        1,954 kbps                      
    Presentation Graphics           French          1,615 kbps                      
    Presentation Graphics           Italian         1,589 kbps                      
    Presentation Graphics           German          1,731 kbps                      
    Presentation Graphics           Spanish         1,647 kbps                      
    
    FILES:
    
    Name            Time In         Length          Size            Total Bitrate   
    ----            -------         ------          ----            -------------   
    00009.M2TS      0:00:00.000     1:48:31.505     34.219.560.960  42.042          
    
    CHAPTERS:
    
    Number          Time In         Length          Avg Video Rate  Max 1-Sec Rate  Max 1-Sec Time  Max 5-Sec Rate  Max 5-Sec Time  Max 10Sec Rate  Max 10Sec Time  Avg Frame Size  Max Frame Size  Max Frame Time  
    ------          -------         ------          --------------  --------------  --------------  --------------  --------------  --------------  --------------  --------------  --------------  --------------  
    1               0:00:00.000     0:00:02.002     724 kbps        1.176 kbps      00:00:01.001    0 kbps          00:00:00.000    0 kbps          00:00:00.000    6.970 bytes     130.252 bytes   00:00:02.002    
    2               0:00:02.002     1:48:29.503     28.039 kbps     50.712 kbps     00:34:27.982    36.935 kbps     00:37:13.606    34.616 kbps     00:26:37.804    146.198 bytes   788.181 bytes   00:01:04.564    
    
    STREAM DIAGNOSTICS:
    
    File            PID             Type            Codec           Language                Seconds                 Bitrate                 Bytes           Packets         
    ----            ---             ----            -----           --------                --------------          --------------          -------------   -----           
    00009.M2TS      4113 (0x1011)   0xEA            VC-1                                    6511,422                28.031                  22.815.100.479  124.089.235     
    00009.M2TS      4352 (0x1100)   0x82            DTS             jpn (Japanese)          6511,422                768                     625.104.896     3.662.724       
    00009.M2TS      4353 (0x1101)   0x86            DTS-HD MA       eng (English)           6511,422                4.231                   3.443.881.292   19.730.577      
    00009.M2TS      4354 (0x1102)   0x82            DTS             fra (French)            6511,422                768                     625.104.896     3.662.724       
    00009.M2TS      4355 (0x1103)   0x82            DTS             ita (Italian)           6511,422                768                     625.104.896     3.662.724       
    00009.M2TS      4356 (0x1104)   0x82            DTS             deu (German)            6511,422                768                     625.104.896     3.662.724       
    00009.M2TS      4357 (0x1105)   0x82            DTS             spa (Spanish)           6511,422                768                     625.104.896     3.662.724       
    00009.M2TS      4358 (0x1106)   0x81            AC3             eng (English)           6511,422                192                     156.276.480     1.017.425       
    00009.M2TS      4608 (0x1200)   0x90            PGS             jpn (Japanese)          6511,422                14                      11.104.190      65.284          
    00009.M2TS      4609 (0x1201)   0x90            PGS             eng (English)           6511,422                25                      20.085.567      114.742         
    00009.M2TS      4610 (0x1202)   0x90            PGS             fra (French)            6511,422                21                      16.913.066      97.104          
    00009.M2TS      4611 (0x1203)   0x90            PGS             ita (Italian)           6511,422                20                      15.915.626      91.689          
    00009.M2TS      4612 (0x1204)   0x90            PGS             deu (German)            6511,422                23                      18.470.632      105.583         
    00009.M2TS      4613 (0x1205)   0x90            PGS             spa (Spanish)           6511,422                20                      16.597.346      95.393          
    00009.M2TS      4614 (0x1206)   0x90            PGS             nld (Dutch)             6511,422                19                      15.307.330      88.363          
    00009.M2TS      4615 (0x1207)   0x90            PGS             dan (Danish)            6511,422                19                      15.575.482      89.860          
    00009.M2TS      4616 (0x1208)   0x90            PGS             fin (Finnish)           6511,422                20                      15.930.866      91.801          
    00009.M2TS      4617 (0x1209)   0x90            PGS             kor (Korean)            6511,422                14                      11.297.597      66.596          
    00009.M2TS      4618 (0x120A)   0x90            PGS             nor (Norwegian)         6511,422                19                      15.390.655      88.841          
    00009.M2TS      4619 (0x120B)   0x90            PGS             por (Portuguese)        6511,422                20                      16.623.477      95.513          
    00009.M2TS      4620 (0x120C)   0x90            PGS             swe (Swedish)           6511,422                18                      14.929.409      86.360          
    00009.M2TS      4621 (0x120D)   0x90            PGS             zho (Chinese)           6511,422                18                      14.570.386      84.412          
    00009.M2TS      4622 (0x120E)   0x90            PGS             jpn (Japanese)          6511,422                24                      19.632.633      111.314         
    00009.M2TS      4623 (0x120F)   0x90            PGS             eng (English)           6511,422                44                      35.657.137      202.852         
    00009.M2TS      4624 (0x1210)   0x90            PGS             fra (French)            6511,422                42                      34.228.373      195.330         
    00009.M2TS      4625 (0x1211)   0x90            PGS             ita (Italian)           6511,422                43                      35.215.053      200.692         
    00009.M2TS      4626 (0x1212)   0x90            PGS             deu (German)            6511,422                49                      39.698.359      225.028         
    00009.M2TS      4627 (0x1213)   0x90            PGS             spa (Spanish)           6511,422                44                      36.113.966      205.563         
    00009.M2TS      4628 (0x1214)   0x90            PGS             jpn (Japanese)          6511,422                43                      35.161.617      199.857         
    00009.M2TS      4629 (0x1215)   0x90            PGS             eng (English)           6511,422                71                      58.100.154      328.918         
    00009.M2TS      4630 (0x1216)   0x90            PGS             fra (French)            6511,422                64                      51.692.653      294.192         
    00009.M2TS      4631 (0x1217)   0x90            PGS             ita (Italian)           6511,422                59                      48.397.233      276.268         
    00009.M2TS      4632 (0x1218)   0x90            PGS             deu (German)            6511,422                66                      54.017.526      306.831         
    00009.M2TS      4633 (0x1219)   0x90            PGS             spa (Spanish)           6511,422                62                      50.510.632      287.754         
    00009.M2TS      4634 (0x121A)   0x90            PGS             jpn (Japanese)          6511,422                2                       1.590.452       9.305           
    00009.M2TS      4635 (0x121B)   0x90            PGS             fra (French)            6511,422                2                       1.314.547       7.588           
    00009.M2TS      4636 (0x121C)   0x90            PGS             ita (Italian)           6511,422                2                       1.293.671       7.481           
    00009.M2TS      4637 (0x121D)   0x90            PGS             deu (German)            6511,422                2                       1.408.691       8.111           
    00009.M2TS      4638 (0x121E)   0x90            PGS             spa (Spanish)           6511,422                2                       1.340.637       7.730           
    00009.M2TS      6656 (0x1A00)   0xA2            DTS Express     eng (English)           6511,422                192                     156.276.736     915.684         
    00009.M2TS      6912 (0x1B00)   0xEA            VC-1                                    6511,422                2.002                   1.629.150.740   8.948.056       
    00009.M2TS      6913 (0x1B01)   0xEA            VC-1                                    6511,422                155                     126.229.061     788.487
    QUICK SUMMARY:
    Spoiler Spoiler:




    Spoiler Spoiler:

    Spoiler Spoiler:


    Bourne Ultimatum
    Código:
    DISC INFO:
    
    Disc Title:     BOURNE_ULTIM_G51
    Disc Size:      44.321.958.492 bytes
    Protection:     AACS
    BD-Java:        Yes
    BDInfo:         0.5.8
    
    PLAYLIST REPORT:
    
    Name:                   00000.MPLS
    Length:                 1:55:13.907 (h:m:s.ms)
    Size:                   33.900.331.008 bytes
    Total Bitrate:          39,23 Mbps
    
    VIDEO:
    
    Codec                   Bitrate             Description     
    -----                   -------             -----------     
    VC-1 Video              26319 kbps          1080p / 23,976 fps / 16:9 / Advanced Profile 3
    VC-1 Video              1292 kbps           480p / 23,976 fps / 16:9 / Advanced Profile 2
    VC-1 Video              80 kbps             480p / 23,976 fps / 16:9 / Advanced Profile 2
    
    AUDIO:
    
    Codec                           Language        Bitrate         Description     
    -----                           --------        -------         -----------     
    DTS Audio                       Japanese        768 kbps        5.1 / 48 kHz / 768 kbps / 24-bit
    DTS-HD Master Audio             English         4210 kbps       5.1 / 48 kHz / 4210 kbps / 24-bit (DTS Core: 5.1 / 48 kHz / 1509 kbps / 24-bit)
    DTS Audio                       French          768 kbps        5.1 / 48 kHz / 768 kbps / 24-bit
    DTS Audio                       Italian         768 kbps        5.1 / 48 kHz / 768 kbps / 24-bit
    DTS Audio                       German          768 kbps        5.1 / 48 kHz / 768 kbps / 24-bit
    DTS Audio                       Spanish         768 kbps        5.1 / 48 kHz / 768 kbps / 24-bit
    Dolby Digital Audio             English         192 kbps        2.0 / 48 kHz / 192 kbps / DN -4dB / Dolby Surround
    DTS Express                     English         192 kbps        2.0 / 48 kHz / 192 kbps / 24-bit
    
    SUBTITLES:
    
    Codec                           Language        Bitrate         Description     
    -----                           --------        -------         -----------     
    Presentation Graphics           Japanese        15,783 kbps                     
    Presentation Graphics           English         27,261 kbps                     
    Presentation Graphics           French          26,977 kbps                     
    Presentation Graphics           Italian         24,097 kbps                     
    Presentation Graphics           German          28,200 kbps                     
    Presentation Graphics           Spanish         26,660 kbps                     
    Presentation Graphics           Dutch           17,892 kbps                     
    Presentation Graphics           Danish          19,754 kbps                     
    Presentation Graphics           Finnish         20,492 kbps                     
    Presentation Graphics           Korean          11,677 kbps                     
    Presentation Graphics           Norwegian       17,527 kbps                     
    Presentation Graphics           Portuguese      23,251 kbps                     
    Presentation Graphics           Swedish         19,906 kbps                     
    Presentation Graphics           Chinese         16,862 kbps                     
    Presentation Graphics           Japanese        24,547 kbps                     
    Presentation Graphics           English         45,346 kbps                     
    Presentation Graphics           French          43,029 kbps                     
    Presentation Graphics           Italian         43,033 kbps                     
    Presentation Graphics           German          48,625 kbps                     
    Presentation Graphics           Spanish         43,496 kbps                     
    Presentation Graphics           Japanese        23,871 kbps                     
    Presentation Graphics           English         28,066 kbps                     
    Presentation Graphics           French          26,835 kbps                     
    Presentation Graphics           Italian         26,533 kbps                     
    Presentation Graphics           German          27,807 kbps                     
    Presentation Graphics           Spanish         26,333 kbps                     
    Presentation Graphics           Japanese        2,232 kbps                      
    Presentation Graphics           English         0,621 kbps                      
    Presentation Graphics           French          1,044 kbps                      
    Presentation Graphics           Italian         1,704 kbps                      
    Presentation Graphics           German          1,265 kbps                      
    Presentation Graphics           Spanish         3,002 kbps                      
    
    FILES:
    
    Name            Time In         Length          Size            Total Bitrate   
    ----            -------         ------          ----            -------------   
    00009.M2TS      0:00:00.000     1:55:13.907     33.900.331.008  39.226          
    
    CHAPTERS:
    
    Number          Time In         Length          Avg Video Rate  Max 1-Sec Rate  Max 1-Sec Time  Max 5-Sec Rate  Max 5-Sec Time  Max 10Sec Rate  Max 10Sec Time  Avg Frame Size  Max Frame Size  Max Frame Time  
    ------          -------         ------          --------------  --------------  --------------  --------------  --------------  --------------  --------------  --------------  --------------  --------------  
    1               0:00:00.000     0:04:02.242     22.444 kbps     43.917 kbps     00:02:23.059    31.793 kbps     00:02:22.976    29.778 kbps     00:03:27.999    118.254 bytes   450.711 bytes   00:02:29.774    
    2               0:04:02.242     0:05:43.885     24.743 kbps     41.697 kbps     00:04:49.956    33.795 kbps     00:05:51.476    31.261 kbps     00:07:15.435    128.996 bytes   622.488 bytes   00:06:27.595    
    3               0:09:46.127     0:04:11.084     27.771 kbps     38.991 kbps     00:13:24.261    33.903 kbps     00:11:42.952    31.963 kbps     00:10:30.296    144.784 bytes   606.498 bytes   00:13:12.625    
    4               0:13:57.211     0:07:04.632     28.009 kbps     40.537 kbps     00:19:41.263    34.622 kbps     00:18:13.383    32.206 kbps     00:18:14.093    146.028 bytes   492.645 bytes   00:15:24.924    
    5               0:21:01.843     0:06:50.201     27.475 kbps     44.433 kbps     00:26:19.160    32.497 kbps     00:26:17.450    31.611 kbps     00:26:19.160    143.244 bytes   490.136 bytes   00:22:34.853    
    6               0:27:52.045     0:03:54.817     28.155 kbps     39.653 kbps     00:31:38.855    32.533 kbps     00:28:53.565    31.373 kbps     00:31:04.487    146.789 bytes   548.207 bytes   00:31:39.105    
    7               0:31:46.863     0:06:57.583     27.826 kbps     44.028 kbps     00:36:02.869    34.400 kbps     00:38:24.927    32.348 kbps     00:36:53.044    145.072 bytes   562.615 bytes   00:31:48.865    
    8               0:38:44.447     0:05:07.306     28.150 kbps     39.936 kbps     00:40:31.137    32.929 kbps     00:43:36.405    32.038 kbps     00:43:31.650    146.761 bytes   583.288 bytes   00:42:20.663    
    9               0:43:51.754     0:06:11.162     27.391 kbps     38.496 kbps     00:46:53.060    34.870 kbps     00:49:32.678    32.378 kbps     00:49:32.636    142.802 bytes   569.121 bytes   00:48:44.421    
    10              0:50:02.916     0:08:09.864     27.879 kbps     47.054 kbps     00:54:57.711    33.525 kbps     00:55:44.591    31.912 kbps     00:55:41.838    145.347 bytes   612.506 bytes   00:58:12.697    
    11              0:58:12.780     0:07:22.984     28.252 kbps     42.210 kbps     00:58:55.490    34.021 kbps     01:02:05.638    32.128 kbps     01:02:02.802    147.291 bytes   525.235 bytes   00:58:38.932    
    12              1:05:35.765     0:05:00.133     28.356 kbps     39.730 kbps     01:07:16.282    34.630 kbps     01:08:02.578    32.171 kbps     01:07:59.241    147.833 bytes   479.394 bytes   01:07:05.688    
    13              1:10:35.898     0:05:13.688     27.792 kbps     41.140 kbps     01:12:00.733    33.385 kbps     01:14:14.116    31.357 kbps     01:14:39.349    144.897 bytes   513.842 bytes   01:11:29.034    
    14              1:15:49.586     0:04:47.370     27.864 kbps     46.586 kbps     01:18:24.866    34.410 kbps     01:17:17.758    32.464 kbps     01:17:15.589    145.268 bytes   740.944 bytes   01:18:27.994    
    15              1:20:36.957     0:04:31.312     28.191 kbps     41.556 kbps     01:23:33.758    34.919 kbps     01:23:33.508    31.888 kbps     01:22:21.978    146.973 bytes   539.485 bytes   01:25:08.186    
    16              1:25:08.269     0:06:26.511     28.454 kbps     44.506 kbps     01:28:25.800    34.480 kbps     01:28:26.009    32.511 kbps     01:28:24.090    148.347 bytes   575.387 bytes   01:28:26.301    
    17              1:31:34.780     0:04:23.513     27.912 kbps     42.363 kbps     01:32:43.724    33.285 kbps     01:32:17.698    31.973 kbps     01:32:16.822    145.519 bytes   464.186 bytes   01:32:28.209    
    18              1:35:58.294     0:06:13.539     26.983 kbps     37.140 kbps     01:38:18.350    34.394 kbps     01:38:43.542    31.932 kbps     01:38:38.871    140.742 bytes   566.208 bytes   01:37:45.109    
    19              1:42:11.834     0:03:55.526     27.673 kbps     38.824 kbps     01:42:39.528    34.444 kbps     01:45:52.262    32.508 kbps     01:45:17.728    144.272 bytes   564.051 bytes   01:45:11.513    
    20              1:46:07.361     0:09:06.546     12.494 kbps     44.215 kbps     01:48:02.476    27.916 kbps     01:46:51.738    21.515 kbps     01:46:51.405    65.190 bytes    445.719 bytes   01:46:54.241    
    
    STREAM DIAGNOSTICS:
    
    File            PID             Type            Codec           Language                Seconds                 Bitrate                 Bytes           Packets         
    ----            ---             ----            -----           --------                --------------          --------------          -------------   -----           
    00009.M2TS      4113 (0x1011)   0xEA            VC-1                                    6913,782                26.319                  22.745.670.105  123.717.995     
    00009.M2TS      4352 (0x1100)   0x82            DTS             jpn (Japanese)          6913,782                768                     663.735.296     3.889.074       
    00009.M2TS      4353 (0x1101)   0x86            DTS-HD MA       eng (English)           6913,782                4.210                   3.638.476.432   20.851.756      
    00009.M2TS      4354 (0x1102)   0x82            DTS             fra (French)            6913,782                768                     663.735.296     3.889.074       
    00009.M2TS      4355 (0x1103)   0x82            DTS             ita (Italian)           6913,782                768                     663.735.296     3.889.074       
    00009.M2TS      4356 (0x1104)   0x82            DTS             deu (German)            6913,782                768                     663.735.296     3.889.074       
    00009.M2TS      4357 (0x1105)   0x82            DTS             spa (Spanish)           6913,782                768                     663.735.296     3.889.074       
    00009.M2TS      4358 (0x1106)   0x81            AC3             eng (English)           6913,782                192                     165.934.080     1.080.300       
    00009.M2TS      4608 (0x1200)   0x90            PGS             jpn (Japanese)          6913,782                16                      13.640.227      79.901          
    00009.M2TS      4609 (0x1201)   0x90            PGS             eng (English)           6913,782                27                      23.559.973      135.198         
    00009.M2TS      4610 (0x1202)   0x90            PGS             fra (French)            6913,782                27                      23.314.479      133.022         
    00009.M2TS      4611 (0x1203)   0x90            PGS             ita (Italian)           6913,782                24                      20.825.905      119.562         
    00009.M2TS      4612 (0x1204)   0x90            PGS             deu (German)            6913,782                28                      24.371.174      138.959         
    00009.M2TS      4613 (0x1205)   0x90            PGS             spa (Spanish)           6913,782                27                      23.040.397      132.014         
    00009.M2TS      4614 (0x1206)   0x90            PGS             nld (Dutch)             6913,782                18                      15.463.289      90.309          
    00009.M2TS      4615 (0x1207)   0x90            PGS             dan (Danish)            6913,782                20                      17.071.755      98.923          
    00009.M2TS      4616 (0x1208)   0x90            PGS             fin (Finnish)           6913,782                20                      17.710.199      102.979         
    00009.M2TS      4617 (0x1209)   0x90            PGS             kor (Korean)            6913,782                12                      10.091.642      60.944          
    00009.M2TS      4618 (0x120A)   0x90            PGS             nor (Norwegian)         6913,782                18                      15.147.862      88.579          
    00009.M2TS      4619 (0x120B)   0x90            PGS             por (Portuguese)        6913,782                23                      20.094.309      115.710         
    00009.M2TS      4620 (0x120C)   0x90            PGS             swe (Swedish)           6913,782                20                      17.203.134      99.748          
    00009.M2TS      4621 (0x120D)   0x90            PGS             zho (Chinese)           6913,782                17                      14.572.386      85.390          
    00009.M2TS      4622 (0x120E)   0x90            PGS             jpn (Japanese)          6913,782                25                      21.214.147      120.473         
    00009.M2TS      4623 (0x120F)   0x90            PGS             eng (English)           6913,782                45                      39.190.008      222.212         
    00009.M2TS      4624 (0x1210)   0x90            PGS             fra (French)            6913,782                43                      37.187.656      211.439         
    00009.M2TS      4625 (0x1211)   0x90            PGS             ita (Italian)           6913,782                43                      37.190.895      211.520         
    00009.M2TS      4626 (0x1212)   0x90            PGS             deu (German)            6913,782                49                      42.023.275      237.651         
    00009.M2TS      4627 (0x1213)   0x90            PGS             spa (Spanish)           6913,782                43                      37.590.545      213.690         
    00009.M2TS      4628 (0x1214)   0x90            PGS             jpn (Japanese)          6913,782                24                      20.630.167      117.229         
    00009.M2TS      4629 (0x1215)   0x90            PGS             eng (English)           6913,782                28                      24.255.573      137.199         
    00009.M2TS      4630 (0x1216)   0x90            PGS             fra (French)            6913,782                27                      23.191.836      131.753         
    00009.M2TS      4631 (0x1217)   0x90            PGS             ita (Italian)           6913,782                27                      22.930.979      130.372         
    00009.M2TS      4632 (0x1218)   0x90            PGS             deu (German)            6913,782                28                      24.031.842      136.270         
    00009.M2TS      4633 (0x1219)   0x90            PGS             spa (Spanish)           6913,782                26                      22.758.277      129.392         
    00009.M2TS      4634 (0x121A)   0x90            PGS             jpn (Japanese)          6913,782                2                       1.928.953       11.223          
    00009.M2TS      4635 (0x121B)   0x90            PGS             eng (English)           6913,782                1                       536.776         3.116           
    00009.M2TS      4636 (0x121C)   0x90            PGS             fra (French)            6913,782                1                       902.379         5.211           
    00009.M2TS      4637 (0x121D)   0x90            PGS             ita (Italian)           6913,782                2                       1.472.260       8.413           
    00009.M2TS      4638 (0x121E)   0x90            PGS             deu (German)            6913,782                1                       1.093.524       6.335           
    00009.M2TS      4639 (0x121F)   0x90            PGS             spa (Spanish)           6913,782                3                       2.594.663       14.837          
    00009.M2TS      6656 (0x1A00)   0xA2            DTS Express     eng (English)           6913,782                192                     165.935.104     972.276         
    00009.M2TS      6912 (0x1B00)   0xEA            VC-1                                    6913,782                1.292                   1.116.875.493   6.174.607       
    00009.M2TS      6913 (0x1B01)   0xEA            VC-1                                    6913,782                80                      69.541.954      487.152
    QUICK SUMMARY:
    Spoiler Spoiler:




    Spoiler Spoiler:

    Spoiler Spoiler:


    Bourne Legacy
    Código:
    DISC INFO:
    
    Disc Title:     BOURNE_LEGACY_G51
    Disc Size:      44.837.102.901 bytes
    Protection:     AACS
    BD-Java:        Yes
    BDInfo:         0.5.8
    
    PLAYLIST REPORT:
    
    Name:                   00800.MPLS
    Length:                 2:14:54.961 (h:m:s.ms)
    Size:                   37.534.304.256 bytes
    Total Bitrate:          37,09 Mbps
    
    VIDEO:
    
    Codec                   Bitrate             Description     
    -----                   -------             -----------     
    MPEG-4 AVC Video        26131 kbps          1080p / 23,976 fps / 16:9 / High Profile 4.1
    
    AUDIO:
    
    Codec                           Language        Bitrate         Description     
    -----                           --------        -------         -----------     
    DTS-HD Master Audio             English         3884 kbps       5.1 / 48 kHz / 3884 kbps / 24-bit (DTS Core: 5.1 / 48 kHz / 1509 kbps / 24-bit)
    DTS Audio                       French          768 kbps        5.1 / 48 kHz / 768 kbps / 24-bit
    DTS Audio                       Italian         768 kbps        5.1 / 48 kHz / 768 kbps / 24-bit
    DTS Audio                       German          768 kbps        5.1 / 48 kHz / 768 kbps / 24-bit
    DTS Audio                       Spanish         768 kbps        5.1 / 48 kHz / 768 kbps / 24-bit
    DTS Audio                       Hindi           768 kbps        5.1 / 48 kHz / 768 kbps / 24-bit
    Dolby Digital Audio             English         192 kbps        2.0 / 48 kHz / 192 kbps / DN -4dB / Dolby Surround
    
    SUBTITLES:
    
    Codec                           Language        Bitrate         Description     
    -----                           --------        -------         -----------     
    Presentation Graphics           English         34,609 kbps                     
    Presentation Graphics           French          25,448 kbps                     
    Presentation Graphics           Italian         27,436 kbps                     
    Presentation Graphics           German          31,706 kbps                     
    Presentation Graphics           Spanish         27,374 kbps                     
    Presentation Graphics           Hindi           22,048 kbps                     
    Presentation Graphics           Dutch           25,508 kbps                     
    Presentation Graphics           Portuguese      25,561 kbps                     
    Presentation Graphics           Chinese         18,534 kbps                     
    Presentation Graphics           Danish          25,742 kbps                     
    Presentation Graphics           Finnish         23,216 kbps                     
    Presentation Graphics           Icelandic       30,769 kbps                     
    Presentation Graphics           Korean          16,030 kbps                     
    Presentation Graphics           Norwegian       22,712 kbps                     
    Presentation Graphics           Swedish         26,100 kbps                     
    Presentation Graphics           Chinese         24,289 kbps                     
    Presentation Graphics           Arabic          15,508 kbps                     
    Presentation Graphics           English         83,628 kbps                     
    Presentation Graphics           French          70,434 kbps                     
    Presentation Graphics           Italian         71,194 kbps                     
    Presentation Graphics           German          81,186 kbps                     
    Presentation Graphics           Spanish         71,539 kbps                     
    Presentation Graphics           French          0,326 kbps                      
    Presentation Graphics           Italian         0,495 kbps                      
    Presentation Graphics           German          0,453 kbps                      
    Presentation Graphics           Spanish         0,516 kbps                      
    Presentation Graphics           Hindi           0,573 kbps                      
    
    FILES:
    
    Name            Time In         Length          Size            Total Bitrate   
    ----            -------         ------          ----            -------------   
    00023.M2TS      0:00:00.000     2:14:54.961     37.534.304.256  37.094          
    
    CHAPTERS:
    
    Number          Time In         Length          Avg Video Rate  Max 1-Sec Rate  Max 1-Sec Time  Max 5-Sec Rate  Max 5-Sec Time  Max 10Sec Rate  Max 10Sec Time  Avg Frame Size  Max Frame Size  Max Frame Time  
    ------          -------         ------          --------------  --------------  --------------  --------------  --------------  --------------  --------------  --------------  --------------  --------------  
    1               0:00:00.000     0:08:43.689     26.164 kbps     35.342 kbps     00:00:23.565    31.179 kbps     00:00:45.336    30.913 kbps     00:01:11.571    136.395 bytes   419.351 bytes   00:00:24.024    
    2               0:08:43.689     0:05:42.925     27.202 kbps     33.410 kbps     00:11:09.710    31.316 kbps     00:11:05.706    31.034 kbps     00:11:00.785    141.817 bytes   479.779 bytes   00:11:28.020    
    3               0:14:26.615     0:05:30.872     26.540 kbps     33.653 kbps     00:19:29.084    31.279 kbps     00:19:10.065    30.868 kbps     00:19:47.477    138.366 bytes   453.835 bytes   00:19:05.936    
    4               0:19:57.487     0:07:55.808     26.946 kbps     32.052 kbps     00:20:05.954    31.061 kbps     00:27:12.589    30.924 kbps     00:27:06.458    140.482 bytes   320.079 bytes   00:24:20.917    
    5               0:27:53.296     0:06:24.967     25.968 kbps     32.303 kbps     00:33:45.648    30.931 kbps     00:29:52.457    30.783 kbps     00:28:37.465    135.386 bytes   287.027 bytes   00:30:05.804    
    6               0:34:18.264     0:08:34.138     24.918 kbps     31.982 kbps     00:40:22.795    30.836 kbps     00:35:49.981    30.094 kbps     00:35:46.269    129.909 bytes   338.495 bytes   00:39:40.586    
    7               0:42:52.403     0:05:04.971     28.374 kbps     33.496 kbps     00:45:17.339    31.279 kbps     00:45:13.335    31.006 kbps     00:45:08.372    147.928 bytes   259.414 bytes   00:43:21.640    
    8               0:47:57.374     0:05:58.691     25.080 kbps     33.198 kbps     00:53:41.426    31.143 kbps     00:53:40.550    30.424 kbps     00:48:50.052    130.757 bytes   454.328 bytes   00:53:42.260    
    9               0:53:56.066     0:06:33.101     26.494 kbps     34.456 kbps     01:00:17.155    31.368 kbps     01:00:13.151    30.514 kbps     00:57:19.018    138.130 bytes   371.982 bytes   00:54:01.196    
    10              1:00:29.167     0:07:07.468     25.662 kbps     33.032 kbps     01:07:09.233    30.971 kbps     01:07:09.525    30.746 kbps     01:07:09.108    133.791 bytes   455.315 bytes   01:07:10.693    
    11              1:07:36.635     0:07:00.336     26.090 kbps     33.808 kbps     01:14:33.302    31.120 kbps     01:08:06.707    30.794 kbps     01:08:57.174    136.022 bytes   383.091 bytes   01:08:11.295    
    12              1:14:36.972     0:08:02.231     25.357 kbps     31.732 kbps     01:21:04.442    30.889 kbps     01:21:36.433    30.355 kbps     01:14:39.725    132.198 bytes   463.946 bytes   01:22:25.482    
    13              1:22:39.204     0:05:58.483     26.617 kbps     33.203 kbps     01:22:44.501    31.039 kbps     01:24:51.544    30.833 kbps     01:26:14.127    138.769 bytes   332.876 bytes   01:23:24.874    
    14              1:28:37.687     0:08:01.355     26.516 kbps     35.218 kbps     01:29:13.848    31.553 kbps     01:29:09.761    31.122 kbps     01:29:04.881    138.241 bytes   315.838 bytes   01:32:44.267    
    15              1:36:39.043     0:04:26.641     27.797 kbps     33.514 kbps     01:38:05.963    31.106 kbps     01:38:59.308    30.931 kbps     01:38:54.219    144.918 bytes   307.572 bytes   01:38:16.265    
    16              1:41:05.684     0:04:02.283     23.728 kbps     31.086 kbps     01:43:41.298    30.748 kbps     01:43:34.541    29.820 kbps     01:43:33.290    123.705 bytes   252.406 bytes   01:41:43.847    
    17              1:45:07.968     0:07:07.552     23.834 kbps     31.895 kbps     01:50:36.880    29.440 kbps     01:50:59.694    28.549 kbps     01:51:37.273    124.260 bytes   301.961 bytes   01:51:59.045    
    18              1:52:15.520     0:07:51.762     27.878 kbps     36.610 kbps     01:55:11.779    30.785 kbps     01:58:06.287    30.432 kbps     01:54:07.799    145.343 bytes   352.212 bytes   01:53:35.850    
    19              2:00:07.283     0:04:59.132     26.116 kbps     32.006 kbps     02:04:25.458    30.987 kbps     02:03:11.217    30.839 kbps     02:00:37.521    136.158 bytes   276.001 bytes   02:02:01.439    
    20              2:05:06.415     0:09:48.546     25.901 kbps     35.340 kbps     02:14:45.327    30.917 kbps     02:12:05.417    30.865 kbps     02:05:43.869    135.047 bytes   511.029 bytes   02:13:12.985    
    
    STREAM DIAGNOSTICS:
    
    File            PID             Type            Codec           Language                Seconds                 Bitrate                 Bytes           Packets         
    ----            ---             ----            -----           --------                --------------          --------------          -------------   -----           
    00023.M2TS      4113 (0x1011)   0x1B            AVC                                     8094,795                26.132                  26.441.614.394  143.817.624     
    00023.M2TS      4352 (0x1100)   0x86            DTS-HD MA       eng (English)           8094,795                3.884                   3.930.141.944   22.621.148      
    00023.M2TS      4353 (0x1101)   0x82            DTS             fra (French)            8094,795                768                     777.116.672     4.553.418       
    00023.M2TS      4354 (0x1102)   0x82            DTS             ita (Italian)           8094,795                768                     777.116.672     4.553.418       
    00023.M2TS      4355 (0x1103)   0x82            DTS             deu (German)            8094,795                768                     777.116.672     4.553.418       
    00023.M2TS      4356 (0x1104)   0x82            DTS             spa (Spanish)           8094,795                768                     777.116.672     4.553.418       
    00023.M2TS      4357 (0x1105)   0x82            DTS             hin (Hindi)             8094,795                768                     777.116.672     4.553.418       
    00023.M2TS      4358 (0x1106)   0x81            AC3             eng (English)           8094,795                192                     194.279.424     1.264.840       
    00023.M2TS      4608 (0x1200)   0x90            PGS             eng (English)           8094,795                35                      35.020.170      200.507         
    00023.M2TS      4609 (0x1201)   0x90            PGS             fra (French)            8094,795                25                      25.750.122      148.635         
    00023.M2TS      4610 (0x1202)   0x90            PGS             ita (Italian)           8094,795                27                      27.761.169      160.885         
    00023.M2TS      4611 (0x1203)   0x90            PGS             deu (German)            8094,795                32                      32.082.863      184.368         
    00023.M2TS      4612 (0x1204)   0x90            PGS             spa (Spanish)           8094,795                27                      27.699.045      160.656         
    00023.M2TS      4613 (0x1205)   0x90            PGS             hin (Hindi)             8094,795                22                      22.309.659      131.404         
    00023.M2TS      4614 (0x1206)   0x90            PGS             nld (Dutch)             8094,795                26                      25.811.238      148.080         
    00023.M2TS      4615 (0x1207)   0x90            PGS             por (Portuguese)        8094,795                26                      25.864.874      148.569         
    00023.M2TS      4616 (0x1208)   0x90            PGS             zho (Chinese)           8094,795                19                      18.754.164      111.615         
    00023.M2TS      4617 (0x1209)   0x90            PGS             dan (Danish)            8094,795                26                      26.047.773      148.523         
    00023.M2TS      4618 (0x120A)   0x90            PGS             fin (Finnish)           8094,795                23                      23.491.624      135.760         
    00023.M2TS      4619 (0x120B)   0x90            PGS             isl (Icelandic)         8094,795                31                      31.134.583      179.246         
    00023.M2TS      4620 (0x120C)   0x90            PGS             kor (Korean)            8094,795                16                      16.220.225      96.845          
    00023.M2TS      4621 (0x120D)   0x90            PGS             nor (Norwegian)         8094,795                23                      22.981.711      133.233         
    00023.M2TS      4622 (0x120E)   0x90            PGS             swe (Swedish)           8094,795                26                      26.409.462      150.702         
    00023.M2TS      4623 (0x120F)   0x90            PGS             zho (Chinese)           8094,795                24                      24.577.743      144.108         
    00023.M2TS      4624 (0x1210)   0x90            PGS             ara (Arabic)            8094,795                16                      15.692.118      95.163          
    00023.M2TS      4625 (0x1211)   0x90            PGS             eng (English)           8094,795                84                      84.621.169      478.391         
    00023.M2TS      4626 (0x1212)   0x90            PGS             fra (French)            8094,795                70                      71.270.492      405.847         
    00023.M2TS      4627 (0x1213)   0x90            PGS             ita (Italian)           8094,795                71                      72.039.499      410.045         
    00023.M2TS      4628 (0x1214)   0x90            PGS             deu (German)            8094,795                81                      82.149.316      464.905         
    00023.M2TS      4629 (0x1215)   0x90            PGS             spa (Spanish)           8094,795                72                      72.387.846      411.929         
    00023.M2TS      4630 (0x1216)   0x90            PGS             fra (French)            8094,795                0                       329.769         1.882           
    00023.M2TS      4631 (0x1217)   0x90            PGS             ita (Italian)           8094,795                0                       501.053         2.851           
    00023.M2TS      4632 (0x1218)   0x90            PGS             deu (German)            8094,795                0                       457.929         2.611           
    00023.M2TS      4633 (0x1219)   0x90            PGS             spa (Spanish)           8094,795                1                       522.440         2.958           
    00023.M2TS      4634 (0x121A)   0x90            PGS             hin (Hindi)             8094,795                1                       579.664         3.413
    QUICK SUMMARY:
    Spoiler Spoiler:




    Spoiler Spoiler:

    Spoiler Spoiler:

    Spoiler Spoiler:


    Jason Bourne
    Código:
    DISC INFO:
    
    Disc Title:     JASON_BOURNE
    Disc Size:      49.450.247.507 bytes
    Protection:     AACS
    BD-Java:        Yes
    BDInfo:         0.5.8
    
    PLAYLIST REPORT:
    
    Name:                   00800.MPLS
    Length:                 2:03:11.592 (h:m:s.ms)
    Size:                   40.835.579.904 bytes
    Total Bitrate:          44,20 Mbps
    
    (*) Indicates included stream hidden by this playlist.
    
    VIDEO:
    
    Codec                   Bitrate             Description     
    -----                   -------             -----------     
    MPEG-4 AVC Video        26899 kbps          1080p / 23,976 fps / 16:9 / High Profile 4.1
    
    AUDIO:
    
    Codec                           Language        Bitrate         Description     
    -----                           --------        -------         -----------     
    DTS-HD Master Audio             English         7388 kbps       7.1 / 48 kHz / 7388 kbps / 24-bit (DTS Core: 5.1 / 48 kHz / 1509 kbps / 24-bit)
    DTS Audio                       English         256 kbps        2.0 / 48 kHz / 256 kbps / 24-bit
    DTS-HD High-Res Audio           French          2046 kbps       7.1 / 48 kHz / 2046 kbps / 24-bit (DTS Core: 5.1 / 48 kHz / 1509 kbps / 24-bit)
    DTS-HD High-Res Audio           German          2046 kbps       7.1 / 48 kHz / 2046 kbps / 24-bit (DTS Core: 5.1 / 48 kHz / 1509 kbps / 24-bit)
    DTS Audio                       Italian         768 kbps        5.1 / 48 kHz / 768 kbps / 24-bit
    DTS Audio                       Spanish         768 kbps        5.1 / 48 kHz / 768 kbps / 24-bit
    DTS Audio                       Turkish         768 kbps        5.1 / 48 kHz / 768 kbps / 24-bit
    * Dolby Digital Audio           French          192 kbps        2.0 / 48 kHz / 192 kbps / DN -4dB / Dolby Surround
    
    SUBTITLES:
    
    Codec                           Language        Bitrate         Description     
    -----                           --------        -------         -----------     
    Presentation Graphics           English         27,322 kbps                     
    Presentation Graphics           French          18,397 kbps                     
    Presentation Graphics           German          21,959 kbps                     
    Presentation Graphics           Italian         23,875 kbps                     
    Presentation Graphics           Dutch           19,781 kbps                     
    Presentation Graphics           Danish          20,508 kbps                     
    Presentation Graphics           Finnish         17,471 kbps                     
    Presentation Graphics           Norwegian       17,365 kbps                     
    Presentation Graphics           Swedish         21,377 kbps                     
    Presentation Graphics           Portuguese      24,088 kbps                     
    Presentation Graphics           Turkish         25,197 kbps                     
    Presentation Graphics           Hindi           19,656 kbps                     
    Presentation Graphics           Arabic          12,884 kbps                     
    Presentation Graphics           Icelandic       26,214 kbps                     
    Presentation Graphics           French          0,486 kbps                      
    Presentation Graphics           German          0,446 kbps                      
    Presentation Graphics           Italian         3,180 kbps                      
    Presentation Graphics           Spanish         1,637 kbps                      
    Presentation Graphics           Turkish         2,096 kbps                      
    Presentation Graphics           Spanish         22,770 kbps                     
    
    FILES:
    
    Name            Time In         Length          Size            Total Bitrate   
    ----            -------         ------          ----            -------------   
    00187.M2TS      0:00:00.000     2:03:11.592     40.835.579.904  44.197          
    
    CHAPTERS:
    
    Number          Time In         Length          Avg Video Rate  Max 1-Sec Rate  Max 1-Sec Time  Max 5-Sec Rate  Max 5-Sec Time  Max 10Sec Rate  Max 10Sec Time  Avg Frame Size  Max Frame Size  Max Frame Time  
    ------          -------         ------          --------------  --------------  --------------  --------------  --------------  --------------  --------------  --------------  --------------  --------------  
    1               0:00:00.000     0:04:04.661     22.579 kbps     31.135 kbps     00:02:57.427    29.838 kbps     00:01:33.718    29.595 kbps     00:01:34.594    117.695 bytes   492.914 bytes   00:00:26.026    
    2               0:04:04.661     0:04:16.881     28.271 kbps     31.886 kbps     00:07:24.777    29.947 kbps     00:07:21.107    29.716 kbps     00:07:02.171    147.391 bytes   418.486 bytes   00:08:21.542    
    3               0:08:21.542     0:05:11.144     26.859 kbps     32.857 kbps     00:13:24.553    30.004 kbps     00:08:56.369    29.743 kbps     00:09:39.954    140.032 bytes   462.841 bytes   00:09:02.375    
    4               0:13:32.686     0:04:55.628     26.885 kbps     31.749 kbps     00:15:45.194    30.147 kbps     00:16:34.743    29.815 kbps     00:16:29.738    140.167 bytes   357.686 bytes   00:13:34.688    
    5               0:18:28.315     0:05:38.921     28.201 kbps     33.123 kbps     00:19:29.835    30.029 kbps     00:23:23.151    29.650 kbps     00:18:46.250    147.027 bytes   308.572 bytes   00:24:07.237    
    6               0:24:07.237     0:05:14.022     27.896 kbps     35.314 kbps     00:26:25.709    29.919 kbps     00:24:30.927    29.664 kbps     00:24:31.845    145.438 bytes   369.358 bytes   00:27:47.749    
    7               0:29:21.259     0:06:54.288     27.484 kbps     31.847 kbps     00:32:43.211    29.993 kbps     00:36:09.959    29.757 kbps     00:36:04.996    143.287 bytes   453.192 bytes   00:36:15.548    
    8               0:36:15.548     0:06:05.114     28.734 kbps     32.229 kbps     00:39:53.933    30.061 kbps     00:40:50.448    29.762 kbps     00:39:04.884    149.806 bytes   447.135 bytes   00:37:41.634    
    9               0:42:20.663     0:06:01.778     29.142 kbps     32.640 kbps     00:47:06.865    30.075 kbps     00:47:02.611    29.813 kbps     00:46:57.815    151.931 bytes   438.914 bytes   00:42:21.664    
    10              0:48:22.441     0:06:49.742     28.778 kbps     35.419 kbps     00:50:12.426    30.745 kbps     00:50:08.380    30.143 kbps     00:50:03.417    150.037 bytes   555.345 bytes   00:49:46.858    
    11              0:55:12.183     0:05:57.482     27.881 kbps     34.218 kbps     00:59:16.928    30.020 kbps     01:00:46.601    29.788 kbps     00:57:50.383    145.359 bytes   368.811 bytes   00:57:27.277    
    12              1:01:09.666     0:07:22.817     29.207 kbps     33.657 kbps     01:02:58.107    30.276 kbps     01:04:25.987    29.939 kbps     01:04:20.857    152.271 bytes   499.961 bytes   01:01:32.355    
    13              1:08:32.483     0:07:50.845     28.416 kbps     34.942 kbps     01:12:45.694    30.442 kbps     01:12:41.690    30.006 kbps     01:12:36.685    148.146 bytes   466.479 bytes   01:16:23.328    
    14              1:16:23.328     0:08:22.001     28.530 kbps     32.108 kbps     01:22:13.762    30.138 kbps     01:22:09.883    29.817 kbps     01:20:02.380    148.743 bytes   461.206 bytes   01:18:34.501    
    15              1:24:45.330     0:04:21.219     25.593 kbps     31.573 kbps     01:24:47.624    29.919 kbps     01:26:06.286    29.696 kbps     01:26:05.660    133.428 bytes   402.505 bytes   01:26:14.127    
    16              1:29:06.549     0:08:46.359     25.986 kbps     32.618 kbps     01:30:11.406    29.810 kbps     01:32:59.073    29.629 kbps     01:36:54.850    135.478 bytes   340.733 bytes   01:29:40.375    
    17              1:37:52.908     0:06:33.434     28.225 kbps     34.074 kbps     01:38:50.215    29.999 kbps     01:41:33.295    29.563 kbps     01:39:19.078    147.152 bytes   369.349 bytes   01:39:19.119    
    18              1:44:26.343     0:03:37.383     26.939 kbps     35.076 kbps     01:45:17.728    30.443 kbps     01:45:13.724    29.640 kbps     01:46:30.842    140.448 bytes   492.916 bytes   01:47:58.805    
    19              1:48:03.727     0:05:57.482     29.241 kbps     31.684 kbps     01:51:26.179    30.041 kbps     01:51:26.137    29.817 kbps     01:49:28.979    152.451 bytes   449.053 bytes   01:51:31.142    
    20              1:54:01.209     0:09:10.383     16.032 kbps     32.967 kbps     01:56:07.877    30.226 kbps     01:56:03.957    29.647 kbps     01:54:05.046    83.595 bytes    472.378 bytes   02:03:09.673    
    
    STREAM DIAGNOSTICS:
    
    File            PID             Type            Codec           Language                Seconds                 Bitrate                 Bytes           Packets         
    ----            ---             ----            -----           --------                --------------          --------------          -------------   -----           
    00187.M2TS      4113 (0x1011)   0x1B            AVC                                     7391,509                26.899                  24.852.976.231  135.173.769     
    00187.M2TS      4352 (0x1100)   0x86            DTS-HD MA       eng (English)           7391,509                7.388                   6.826.111.912   38.249.433      
    00187.M2TS      4353 (0x1101)   0x82            DTS             eng (English)           7391,509                255                     235.607.080     1.385.924       
    00187.M2TS      4354 (0x1102)   0x85            DTS-HD HR       fra (French)            7391,509                2.046                   1.890.400.336   11.087.392      
    00187.M2TS      4355 (0x1103)   0x85            DTS-HD HR       deu (German)            7391,509                2.046                   1.890.400.336   11.087.392      
    00187.M2TS      4356 (0x1104)   0x82            DTS             ita (Italian)           7391,509                768                     709.593.088     4.157.772       
    00187.M2TS      4357 (0x1105)   0x82            DTS             spa (Spanish)           7391,509                768                     709.593.088     4.157.772       
    00187.M2TS      4358 (0x1106)   0x82            DTS             tur (Turkish)           7391,509                768                     709.593.088     4.157.772       
    00187.M2TS      4359 (0x1107)   0x81            AC3             fra (French)            7391,509                192                     177.398.784     1.154.940       
    00187.M2TS      4608 (0x1200)   0x90            PGS             eng (English)           7391,509                27                      25.243.725      145.865         
    00187.M2TS      4609 (0x1201)   0x90            PGS             fra (French)            7391,509                18                      16.997.772      98.992          
    00187.M2TS      4610 (0x1202)   0x90            PGS             deu (German)            7391,509                22                      20.289.173      116.193         
    00187.M2TS      4611 (0x1203)   0x90            PGS             ita (Italian)           7391,509                24                      22.059.673      127.670         
    00187.M2TS      4612 (0x1204)   0x90            PGS             nld (Dutch)             7391,509                20                      18.276.215      105.552         
    00187.M2TS      4613 (0x1205)   0x90            PGS             dan (Danish)            7391,509                21                      18.948.007      108.329         
    00187.M2TS      4614 (0x1206)   0x90            PGS             fin (Finnish)           7391,509                17                      16.141.963      93.124          
    00187.M2TS      4615 (0x1207)   0x90            PGS             nor (Norwegian)         7391,509                17                      16.044.095      93.481          
    00187.M2TS      4616 (0x1208)   0x90            PGS             swe (Swedish)           7391,509                21                      19.751.550      113.331         
    00187.M2TS      4617 (0x1209)   0x90            PGS             por (Portuguese)        7391,509                24                      22.255.806      127.660         
    00187.M2TS      4618 (0x120A)   0x90            PGS             tur (Turkish)           7391,509                25                      23.280.508      134.381         
    00187.M2TS      4619 (0x120B)   0x90            PGS             hin (Hindi)             7391,509                20                      18.160.718      106.631         
    00187.M2TS      4620 (0x120C)   0x90            PGS             ara (Arabic)            7391,509                13                      11.903.777      72.635          
    00187.M2TS      4621 (0x120D)   0x90            PGS             isl (Icelandic)         7391,509                26                      24.220.357      139.478         
    00187.M2TS      4622 (0x120E)   0x90            PGS             fra (French)            7391,509                0                       448.906         2.625           
    00187.M2TS      4623 (0x120F)   0x90            PGS             deu (German)            7391,509                0                       412.516         2.368           
    00187.M2TS      4624 (0x1210)   0x90            PGS             ita (Italian)           7391,509                3                       2.938.298       16.813          
    00187.M2TS      4625 (0x1211)   0x90            PGS             spa (Spanish)           7391,509                2                       1.512.196       8.695           
    00187.M2TS      4626 (0x1212)   0x90            PGS             tur (Turkish)           7391,509                2                       1.936.606       11.110          
    00187.M2TS      4627 (0x1213)   0x90            PGS             spa (Spanish)           7391,509                23                      21.038.058      121.909
    QUICK SUMMARY:
    Spoiler Spoiler:




    Spoiler Spoiler:

    Spoiler Spoiler:

    Spoiler Spoiler:
    davimo, leoky y DrManhattan han agradecido esto.

  2. #2
    adicto Avatar de Iñarritu
    Fecha de ingreso
    27 Oct, 16
    Ubicación
    Madrid
    Mensajes
    160
    Agradecido
    364 veces

    Predeterminado Re: "BOURNE" Análisis de toda la saga

    BOURNE – El análisis mascado

    En primer lugar, debo decir que las capturas de cualquiera de estas películas han sido bastante difíciles en tanto que todas ellas tienen un movimiento casi perpetuo, no hay una cámara quieta, y sí muchas tomas al hombro, barridos y rápidos travellings y giros. Es por eso que es difícil dar con los fotogramas nítidos, que los hay, y que las tomas en movimiento suelen verse mejor de lo que parece en una imagen estática (cosa que, por otra parte, ocurre en la mayoría de films).
    Hablar de la saga Bourne en blu-ray es hablar del progreso del formato. Recordemos las fechas de cada película: 2002, 2004, 2007, 2012 y 2016. Y es que con ellas podemos ver la mejora de calidad en las transferencias digitales, y en el códec. También hay que tener muy en cuenta las estéticas inherentes al material original, lo filmado, así como las intenciones del director.

    Si bien, de la primera a la última se aprecia perfectamente una mejora progresiva, es en los dos extremos donde encontramos la mayor diferencia con su correlativa.

    En Bourne Identity (El caso Bourne), nos encontramos con una imagen que molestará a muchos, sobre todo a los “enemigos” del grano fílmico. Aunque para ser justos, también a cualquiera cuya exigencia técnica les distraiga del entretenimiento. Es cierto que la película de por sí, tiene mucho grano, una fotografía apagada y algo sucia que responde a la estética realista, urbana y europea, incluso si me apuras, setentera. Pero la realidad es que además de eso, tenemos un nivel de detalle que se antoja escaso, y los negros se empastan en las escenas más oscuras como en las que no lo son, por ejemplo, en la chaqueta de Bourne, dejándonos intuir más que mostrándonoslo. En los cielos, en cualquiera, queda patente esa suciedad en la imagen que persiste incluso con buena luminosidad. Se observa también el bajo bitrate para una película de este siglo y de este tipo, con tanta acción de cámara, que limita lo que vemos a sus 24.867 kbps. Con todo eso, aún así no creo que sea un desastre, se deja disfrutar y los colores son muy correctos en los variados escenarios transmitiendo esa sensación de realismo.

    En la siguiente, Bourne Supremacy (El mito de Bourne), el salto es significativo. Y aquí de nuevo está muy relacionado el material original, que con el cambio de director de Doug Liman a Paul Greengrass, cambia también la intención estética de la fotografía. Ahora el grano es más fino generalmente (más “bonito”), tenemos más detalle y nos lo ofrece un bitrate de 28.031 kbps. Ahora el aire sucio y azulado de las escenas urbanas parece más controlado, o sutil. Las escenas nocturnas todavía son muy oscuras, valga la redundancia, pero se ve que responden a la intención realista de la colorimetría, dejándonos suficiente detalle al que agarrarnos. Sin embargo, los negros aún se empastan en ocasiones alarmantemente, continuando con el ejemplo de las prendas de Bourne.

    Al terminar la trilogía, Bourne Ultimatum (El ultimátum de Bourne), vuelve a mejorar, aunque esta vez no tanto. El grano es algo más fino, pero sobre todo aumentan los niveles de claridad y detalle. Ha cambiado el tono urbano europeo con los escenarios y encontramos una paleta de colores mucho más cálida. Por primera vez vemos texturas más finas en las caras, y los colores son más ricos, especialmente apreciable en Marruecos. Aquí ya no veo el problema de sus antecesoras con los negros, que a pesar de ocurrir en algunas tomas, me resulta más coherente. El rango dinámico también me resulta más amplio, de nuevo en Marruecos me lo parece. Aquí la presentación es de 26.319 kbps., una velocidad de datos intermedia entre las anteriores, que me explico por mejoras en el sistema empleado y por la menor cantidad de grano (creo que, si hay más, es más información también).

    Bourne Legacy (El legado de Bourne). Ahora hay otro salto grande, 5 años, mejoras en la tecnología de filmado, y de nuevo cambio en el director, ahora el guionista de las 3 anteriores, Tony Gilroy. Y por primera vez otro director de fotografía pasando de Oliver Wood a Robert Elswit. Esta vez la transferencia se beneficia de una nueva versión del códec MPEG-4 AVC, la High Profile 4.1, habiendo sido todas las anteriores Advanced Profile 3. Por eso, con unos 26.131 kbps., se basta para darnos otra mejora sustancial en cuanto a calidad de imagen se refiere. Se nota que esta ya es cine de otra época. El grano es realmente finísimo, incluso en las tomas oscuras. Negros profundos, perfectos. El rango dinámico me resulta soberbio en los grises de la roca en las montañas del principio, con un nivel de detalle genial. No veo empaste de color por ningún sitio, colores vivos, ricos y matizados. Las texturas en rostros y otras superficies al fin tienen el nivel que se le presupone al 1080p, aunque no sea tan habitual encontrarlo. Y el contraste también es claramente superior, por bien ajustado y no por tener demasiado, como podemos comprobar por ejemplo en las escenas del bosque de la casa de Rachel Weisz. Una imagen muy buena en todos los aspectos.

    Y llegamos a Jason Bourne, la última entrega hasta ahora. Esta vez, el director de fotografía es Barry Ackroyd, y vuelve el director de la segunda y tercera entrega, Paul Greengrass. En lo técnico, en lo que se refiere a la presentación del blu-ray, volvemos a tener el códec MPEG-4 AVC High Profile 4.1, con un bitrate de 26.899 kbps, algo más que la anterior. Y en lo que concierne al material de partida, ahí está la mayor diferencia: Una imagen el 90% de las veces prístina, con grano casi imperceptible, autenticidad en los colores incluso en condiciones de poca luz y múltiples fuentes, y una claridad y detalle fabulosos. Toda una serie de características brindadas por la filmación digital de última generación, que ha hecho posible capturar el estilo documental de toda la saga llevándolo más allá. La escena de lucha cuerpo a cuerpo final, oscura y con dominante amarilla, pretendidamente sucia, evidencia el uso intencionado del grano visible, exclusivamente ahí. Todas las demás son un espectáculo de realismo tal, que me recuerdan las fotografías HDR buenas, las que no pecan de exagerar. En el disco la imagen es soberbia, con un sobresaliente en cada aspecto. Un rango dinámico impresionante, buen contraste, negros bien calibrados, colores naturales y realistas, detalles, claridad y texturas sorprendentes. Los defectos por compresión o transferencia no existen, parecen algo antiguo tras ver cosas como esta. De referencia absoluta. Otro nivel.

    Las gráficas de bitrate al comienzo del hilo son muy esclarecedoras por si solas, más que los bitrate medios. Con ellas podemos hacernos buena idea de la oscilación, de hasta dónde llegan los puntos álgidos, los más bajos, y su cantidad. También podemos aprender cómo es una gráfica de bitrate "bonita" al fijarnos en la de Jason Bourne. Recordemos que unos segundos de imagen estática en pantalla, puede tener mucha calidad con un bitrate bajo, pero en las que nos ocupan eso prácticamente no sucede.

    En las ventanas “código”, para profundizar más, es muy útil echar un vistazo a los bitrate por escenas (Chapters), los medios y los máximos alcanzados en 1, 5 o 10 segundos. Aunque es una información muy técnica, podría encontrarse algún dato de interés sin “estudiárselo”.

    Acerca del sonido las mayores diferencias se dan por la riqueza del sonido que tiene cada película en sí, siendo mejores cuanto más nueva es esta, pero todos muy buenos. La calidad en los blu-rays es muy similar en todos, y siempre muy superior la pista original, sin sorpresas. La pista en castellano es en todas:

    Spanish / DTS Audio / 5.1 / 48 kHz / 768 kbps / 24-bit

    Buena. Mientras que la pista original es la que ofrece el audio realmente jugoso. Con muy pequeñas diferencias en el bitrate, las 4 primeras son:

    English / DTS-HD Master Audio / 5.1 / 48 kHz / 3884 - 4313 kbps / 24-bit (DTS Core: 5.1 / 48 kHz / 1509 kbps / 24-bit).

    Y Jason Bourne se desmarca por ofrecer más canales con esta pista:

    English / DTS-HD Master Audio / 7.1 / 48 kHz / 7388 kbps / 24-bit (DTS Core: 5.1 / 48 kHz / 1509 kbps / 24-bit).

    Una saga imprescindible del thriller de acción.
    Última edición por Iñarritu; 03/03/2017 a las 22:56 Razón: pequeña puntualización
    davimo, Nomenclatus, leoky y 1 usuarios han agradecido esto.

  3. #3
    The End is Nigh... Avatar de DrManhattan
    Fecha de ingreso
    10 Oct, 11
    Mensajes
    1,032
    Agradecido
    1502 veces

    Predeterminado Re: "BOURNE" Análisis de toda la saga

    Magnífico análisis. MIL GRACIAS Iñarritu
    Iñarritu ha agradecido esto.

+ Responder tema

Etiquetas para este tema

Permisos de publicación

  • No puedes crear nuevos temas
  • No puedes responder temas
  • No puedes subir archivos adjuntos
  • No puedes editar tus mensajes
  •  
Powered by vBulletin® Version 4.2.1
Copyright © 2017 vBulletin Solutions, Inc. All rights reserved.
SEO by vBSEO
Image resizer by SevenSkins