Regístrate gratis¡Bienvenido a mundodvd! Regístrate ahora y accede a todos los contenidos de la web. El registro es totalmente gratuito y obtendrás muchas ventajas.
Blu-ray, DVD y cine en casa
Regístrate gratis!
Registro en mundodvd
+ Responder tema
Resultados 1 al 8 de 8

Tema: Heidi (Arupusu no Shoujo Heidi, 1974) Serie TV - Edición Japonesa

  1. #1
    Super Moderador Avatar de repopo
    Fecha de ingreso
    13 nov, 03
    Mensajes
    21,576
    Agradecido
    30298 veces

    Predeterminado Heidi (Arupusu no Shoujo Heidi, 1974) Serie TV - Edición Japonesa



    Colección con la serie completa (52 episodios) repartida entre 9 discos Blu-ray. Audio y subtítulos exclusivamente en japones. De extras, por ahora he encontrado las caretas de entrada y salida sin créditos, en el disco 9. Está en HD, con la misma calidad que el resto de la serie. Mas alguna entrevista y un clip que... no sé qué es (los menús estan en japones, pero creo que es una preview de la serie).

    Si alguien dispone de los DVD editados aquí, sería interesante una comparativa. Estas capturas son de los primeros 3 episodios.


    Código:
    PLAYLIST REPORT:
    
    Name:                   00001.MPLS
    Length:                 2:35:14.346 (h:m:s.ms)
    Size:                   49.266.794.496 bytes
    Total Bitrate:          42,31 Mbps
    
    VIDEO:
    
    Codec                   Bitrate             Description     
    -----                   -------             -----------     
    MPEG-4 AVC Video        37944 kbps          1080p / 23,976 fps / 16:9 / High Profile 4.1
    
    AUDIO:
    
    Codec                           Language        Bitrate         Description     
    -----                           --------        -------         -----------     
    LPCM Audio                      Japanese        2304 kbps       2.0 / 48 kHz / 2304 kbps / 24-bit
    
    SUBTITLES:
    
    Codec                           Language        Bitrate         Description     
    -----                           --------        -------         -----------     
    Presentation Graphics           Japanese        177,651 kbps                    
    
    FILES:
    
    Name            Time In         Length          Size            Total Bitrate   
    ----            -------         ------          ----            -------------   
    00000.M2TS      0:00:00.000     1:17:28.977     24.628.082.688  42.380          
    00001.M2TS      1:17:28.977     1:17:32.272     24.625.969.152  42.347          
    00003.M2TS      2:35:01.250     0:00:13.096     12.742.656      7.784



    javibl, Matt, Alpha3 y 10 usuarios han agradecido esto.

  2. #2
    The Final Frontier Avatar de Trek
    Fecha de ingreso
    30 abr, 06
    Mensajes
    30,245
    Agradecido
    116942 veces

    Predeterminado Re: Heidi (Alps no Shoujo Heidi, 1974) Serie TV - Edición Japonesa

    Antonio1008 ha agradecido esto.

  3. #3
    お兄ちゃん Avatar de jolu
    Fecha de ingreso
    08 sep, 09
    Mensajes
    2,546
    Agradecido
    4679 veces

    Predeterminado Re: Heidi (Alps no Shoujo Heidi, 1974) Serie TV - Edición Japonesa

    Cita Iniciado por repopo Ver mensaje
    Si alguien dispone de los DVD editados aquí, sería interesante una comparativa.

    En el hilo de anime el compañero Alpha3 hizo una comparativa del BD japonés con los discos españoles, cito su mensaje:




    Cita Iniciado por Alpha3 Ver mensaje
    Cambiando un poco de tema, hace un par de semanas comentamos el lanzamiento de Heidi en Blu-ray en Japón. Hoy por fin me ha llegado y he podido echarle un vistazo. Para aquellos que estabais interesados en la calidad de imagen y en el pack os pongo unas fotos (no hechas por mí porque no tengo cámara digital) y unas capturas comparativas con un pack que compré en España hace más de diez años y con el Blu-ray japonés (que estas sí las he hecho yo). Para que la comparación fuese justa debería comparar los DVD japoneses con los Blu-ray japoneses, pero como los únicos DVD que tengo son los españoles pues con esos he hecho la comparación.

    Caja del BD-BOX:

    Spoiler Spoiler:


    Comparación DVD españoles (2003) Vs BD japoneses (2011) Ojo, las imágenes pesan mucho porque son PNG para que las capturas sean fieles y he puesto varias:

    Spoiler Spoiler:


    La verdad es que la edición me ha gustado mucho. Si tengo que ponerle un "pero" sería que echo mucho de menos el grano cinematográfico típico del celuloide. Creo que se les ha ido un poco la mano eliminándolo, aunque está ligeramente presente.



    Tal y como se preveía, despichorre padre.
    repopo, jmac1972, Trek y 1 usuarios han agradecido esto.

  4. #4
    Yagyu clan reject Avatar de Jansen
    Fecha de ingreso
    29 jun, 11
    Mensajes
    3,398
    Agradecido
    3378 veces

    Predeterminado Re: Heidi (Alps no Shoujo Heidi, 1974) Serie TV - Edición Japonesa

    ese "Alps" del título no me suena muy japonés, será "Arupusu" o algo asín

  5. #5
    Super Moderador Avatar de repopo
    Fecha de ingreso
    13 nov, 03
    Mensajes
    21,576
    Agradecido
    30298 veces

    Predeterminado Re: Heidi (Alps no Shoujo Heidi, 1974) Serie TV - Edición Japonesa

    Puesss... lo puse haciendo caso del título que dan en filmaffinity (que también ofrece la variente de Arupusu). Como yo de japonés ni papa, te hago caso.

  6. #6
    recién llegado
    Fecha de ingreso
    25 sep, 18
    Mensajes
    1
    Agradecido
    0 veces

    Predeterminado Re: Heidi (Arupusu no Shoujo Heidi, 1974) Serie TV - Edición Japonesa

    gracias eternas

  7. #7
    adicto Avatar de Bernard Herrman
    Fecha de ingreso
    17 feb, 06
    Mensajes
    103
    Agradecido
    43 veces

    Predeterminado Re: Heidi (Arupusu no Shoujo Heidi, 1974) Serie TV - Edición Japonesa

    Gracias. ¡Qué recuerdos las capturas!

    ¡Ojalá alguien la editase aquí en estas condiciones!

  8. #8
    recién llegado
    Fecha de ingreso
    23 sep, 19
    Mensajes
    1
    Agradecido
    0 veces

    Predeterminado Re: Heidi (Arupusu no Shoujo Heidi, 1974) Serie TV - Edición Japonesa


+ Responder tema

Permisos de publicación

  • No puedes crear nuevos temas
  • No puedes responder temas
  • No puedes subir archivos adjuntos
  • No puedes editar tus mensajes
  •  
Powered by vBulletin® Version 4.2.1
Copyright © 2019 vBulletin Solutions, Inc. All rights reserved.
SEO by vBSEO
Image resizer by SevenSkins