Regístrate gratis¡Bienvenido a mundodvd! Regístrate ahora y accede a todos los contenidos de la web. El registro es totalmente gratuito y obtendrás muchas ventajas.
Blu-ray, DVD y cine en casa
Regístrate gratis!
Registro en mundodvd
+ Responder tema
Resultados 1 al 12 de 12

Tema: Problemas .mov y .mts ¿Algún fabricante??

  1. #1
    habitual
    Fecha de ingreso
    16 nov, 07
    Mensajes
    68
    Agradecido
    2 veces

    Predeterminado Problemas .mov y .mts ¿Algún fabricante??

    Hola, muy buenas.

    Me encuentro que hace tiempo que no puedo reproducir archivos .mov (grabados con una camara panasonic).

    Ahora tengo que comprar un multimedia nuevo y que sea grabador. Me miro las especificaciones de los aparatos y ahora reproducen infinidad de codecs, contenedores, audios, profile, y mil historias mas. Por lo que deduzco que no tendre problemas.

    Me compro un blusens web:tv me dice claramente que reproduce dicho archivo, pongo mis grabaciones y me dice archivo no soportado . Pruebo unos cuantos más y nada. Luego pruebo los .mts que son AVCHD y tampoco los reproduce, y en las especificacion tambien dice poder hacerlo. Nada, lo devuelvo y compro otro.

    Un energi systems P3450 http://www.energysistem.com/es-es/it...p3450_hdtv_rec. Pues me pasa exactamente lo mismo.

    No creo que tantos fabricantes esten mintiendo, entonces sabe alguien de un aparato que pueda reproducir estos formatos, bastante extendidos por cierto. O tal vez sea porque provengan de una camara de fotos y tengan probelmas con licencias o yo que sé .mov (quicktime, apple) .mts-.m2ts (avchd, sony-panasonic) es que no entiendo nada.

    Muchas gracias.

  2. #2
    adicto
    Fecha de ingreso
    10 ago, 07
    Mensajes
    118
    Agradecido
    17 veces

    Predeterminado Respuesta: Problemas .mov y .mts ¿Algún fabricante??

    Te puedo decir que mi Dvico Tvix Slim S1 reproducce sin problemas los archivos de video HD grabados con mi cámara Panasonic (formato AVCHD). Incluso no es necesario que le pongas los ficheros ts o mov internos, simplemente copias la ruta completa que graba la camara y te lo detecta sin problema

  3. #3
    Me comeré tu cerebro.. Avatar de astolff
    Fecha de ingreso
    28 ene, 08
    Ubicación
    Santiago de Compostela
    Mensajes
    4,019
    Agradecido
    468 veces

    Predeterminado Respuesta: Problemas .mov y .mts ¿Algún fabricante??

    Has comprobado el perfil del codec h264?? si está en "BASELINE" no es AVCHD, no es estandar. Revísalo...

  4. #4
    Me comeré tu cerebro.. Avatar de astolff
    Fecha de ingreso
    28 ene, 08
    Ubicación
    Santiago de Compostela
    Mensajes
    4,019
    Agradecido
    468 veces

    Predeterminado Respuesta: Problemas .mov y .mts ¿Algún fabricante??

    El contenedor MOV y MSTS pueden albergar mucho codec diferentes, por ejemplo para MOV hay 6 o 7 codec posibles, epro lo habitual en MAC es usar "M-JPEG" y éste códec casi nop es compatible con ningún reproductor, pero los MOV "normales" en HD son en codec h264 casi como los MP4 de los trailers de la web de MAC, éstos si son compatibles.

    El tema de los M2TS es mucho más fácil, sólo soportan: H264, MPEG2 Y VC1. Para AVCHD se usa H264, epro algunas cámaras no usan un estandar de codificación usan el perfil "BASELINE" de H264 y no es compatible con nada...

  5. #5
    habitual
    Fecha de ingreso
    16 nov, 07
    Mensajes
    68
    Agradecido
    2 veces

    Predeterminado Respuesta: Problemas .mov y .mts ¿Algún fabricante??

    Hola de nuevo.

    Me hago un lio con tanta historia de codecs. Solo puedo decir que tanto el mov como el mts son archivos grabados de una camara panasonic, nosé si tiene algo que ver.

    Ya que me has respondido astolff, decirte que devolvi el web:tv por "querer y no poder" y me compre el que me recomendaste eñ T140. El aparato por el precio que tiene, vamos que no se puede pedir más y cumple perfectamente para lo que quiero.

    Y tampoco me reproduce dichos codecs.

    De todas maneras ya me lo intuía, y como no se puede pedir milagros a un aparato de 40 euros decir que el unico fallo que he encontrado es que desincroniza el audio de la imagen.

    Lo voy a descambiar por otro y se me lo vuelve a hacer, será una lastima pero tendre que mirar otro.

    Un saludo.

  6. #6
    Me comeré tu cerebro.. Avatar de astolff
    Fecha de ingreso
    28 ene, 08
    Ubicación
    Santiago de Compostela
    Mensajes
    4,019
    Agradecido
    468 veces

    Predeterminado Respuesta: Problemas .mov y .mts ¿Algún fabricante??

    Revisa el códec que lleva esos MTS o MOV, seguramente sean M-JPEG o perfil BASELINE, para estos códec no hay ningún reproductor, sólo software para PC o MAC...

  7. #7
    habitual
    Fecha de ingreso
    16 nov, 07
    Mensajes
    68
    Agradecido
    2 veces

    Predeterminado Respuesta: Problemas .mov y .mts ¿Algún fabricante??

    Pues creo que es m-jpeg.
    lo mirare, gracias.

  8. #8
    Me comeré tu cerebro.. Avatar de astolff
    Fecha de ingreso
    28 ene, 08
    Ubicación
    Santiago de Compostela
    Mensajes
    4,019
    Agradecido
    468 veces

    Predeterminado Respuesta: Problemas .mov y .mts ¿Algún fabricante??

    Si usa M-JPEG es el códec de MOV para MAC, por lo tanto no sirve para poder reproducir desde reproductores como multimedias y demás. Por lo tanto el problema es de PANASONIC que no respeta los estádares y prefienres la compatibilidad con el software de edición de vídeo de MAC.

    Pasa con muchas cámaras que "dicen" que graban en AVCHD y es falso ya que usan el perfil "BASELINE" y no es compatible con reproductores de hardware. Por ejemplo con la SONY HDR-SR10 graba en AVCHD y con el perfil correcto (HIGH 4.0)

  9. #9
    habitual
    Fecha de ingreso
    16 nov, 07
    Mensajes
    68
    Agradecido
    2 veces

    Predeterminado Respuesta: Problemas .mov y .mts ¿Algún fabricante??

    Bueno lo he mirado y te pego lo que me sale en el mediainfo, pero el codec es jpeg, sin la "M" delante, ¿es correcto?

    2009\P1000514.MOV

    Format : QuickTime
    Format/Info : Original Apple specifications
    File size : 174 MiB
    Duration : 1mn 5s
    Overall bit rate : 22.5 Mbps
    Encoded date : UTC 2009-01-01 00:38:23
    Tagged date : UTC 2009-01-01 00:38:23
    Writing library : pana

    Video
    ID : 1
    Format : JPEG
    Codec ID : jpeg
    Duration : 1mn 5s
    Bit rate mode : Variable
    Bit rate : 22.2 Mbps
    Width : 1 280 pixels
    Height : 720 pixels
    Display aspect ratio : 16:9
    Frame rate mode : Constant
    Frame rate : 30.000 fps
    Compression mode : Lossy
    Bits/(Pixel*Frame) : 0.803
    Stream size : 172 MiB (99%)
    Language : English
    Encoded date : UTC 2009-01-01 00:38:23
    Tagged date : UTC 2009-01-01 00:38:23

    Audio
    ID : 2
    Format : PCM
    Format settings, Endianness : Big
    Format settings, Sign : Signed
    Codec ID : twos
    Duration : 1mn 5s
    Bit rate mode : Constant
    Bit rate : 256 Kbps
    Channel(s) : 1 channel
    Sampling rate : 16.0 KHz
    Bit depth : 16 bits
    Stream size : 1.98 MiB (1%)
    Language : English
    Encoded date : UTC 2009-01-01 00:38:23
    Tagged date : UTC 2009-01-01 00:38:23




    Y este es del AVCHD, aquí creo que es como tu dices, ¿tendría que poder verse?



    General
    ID : 0 (0x0)
    Complete name : E:\FOTOS\ULTIMA\00014.MTS
    Format : BDAV
    Format/Info : Blu-ray Video
    File size : 324 MiB
    Duration : 3mn 16s
    Overall bit rate : 13.9 Mbps
    Maximum Overall bit rate : 18.0 Mbps

    Video
    ID : 4113 (0x1011)
    Menu ID : 1 (0x1)
    Format : AVC
    Format/Info : Advanced Video Codec
    Format profile : High@L4.0
    Format settings, CABAC : No
    Format settings, ReFrames : 1 frame
    Frame mode : Frame doubling
    Codec ID : 27
    Duration : 3mn 16s
    Bit rate mode : Variable
    Bit rate : 13.1 Mbps
    Maximum bit rate : 16.6 Mbps
    Width : 1 280 pixels
    Height : 720 pixels
    Display aspect ratio : 16:9
    Frame rate : 25.000 fps
    Standard : NTSC
    Color space : YUV
    Chroma subsampling : 4:2:0
    Bit depth : 8 bits
    Scan type : Progressive
    Bits/(Pixel*Frame) : 0.569
    Stream size : 307 MiB (95%)

    Audio
    ID : 4352 (0x1100)
    Menu ID : 1 (0x1)
    Format : AC-3
    Format/Info : Audio Coding 3
    Mode extension : CM (complete main)
    Codec ID : 129
    Duration : 3mn 16s
    Bit rate mode : Constant
    Bit rate : 192 Kbps
    Channel(s) : 2 channels
    Channel positions : Front: L R
    Sampling rate : 48.0 KHz
    Bit depth : 16 bits
    Compression mode : Lossy
    Stream size : 4.49 MiB (1%)

    Text
    ID : 4608 (0x1200)
    Menu ID : 1 (0x1)
    Format : PGS
    Codec ID : 144
    Duration : 3mn 15s



    Gracias de antemano, un saludo.

  10. #10
    Me comeré tu cerebro.. Avatar de astolff
    Fecha de ingreso
    28 ene, 08
    Ubicación
    Santiago de Compostela
    Mensajes
    4,019
    Agradecido
    468 veces

    Predeterminado Respuesta: Problemas .mov y .mts ¿Algún fabricante??

    Para los MOV es imposible, ya que es formato MAC y no se rige por nigún estándar.

    Para los de la cámara sí que son AVCHD, pero la propia cámara no puede crear archivos con extensión M2TS, la verdadera para BD, pero internamente lo son. Renombra la extensión a M2TS y listo.

    00014.MTS -> 00014.M2TS

  11. #11
    habitual
    Fecha de ingreso
    16 nov, 07
    Mensajes
    68
    Agradecido
    2 veces

    Predeterminado Respuesta: Problemas .mov y .mts ¿Algún fabricante??

    Hola, he ido a cambiar la extension, boton derecho, propiedades y en tipo de archivo no se puede cambiar. Creo que hago algo mal, ¿o es simplemente boton derecho y cambiar nombre? Lo digo porque aqui solo me sale el numero de video, no va seguido de por ej; .avi o .mts etc......

    Perdón por mi innegable torpeza en esto.

    Y gracias por el tiempo que has perdido conmigo.

  12. #12
    habitual
    Fecha de ingreso
    16 nov, 07
    Mensajes
    68
    Agradecido
    2 veces

    Predeterminado Respuesta: Problemas .mov y .mts ¿Algún fabricante??

    Bueno ya esta solucionado.

    Tenia que desmarcar en opciones de carpeta, la casilla de ocultar las extensiones de archivo, porque sino no funcionaba el renombre.

    Muchas gracias por la ayuda, un saludo.

+ Responder tema

Permisos de publicación

  • No puedes crear nuevos temas
  • No puedes responder temas
  • No puedes subir archivos adjuntos
  • No puedes editar tus mensajes
  •  
Powered by vBulletin® Version 4.2.1
Copyright © 2019 vBulletin Solutions, Inc. All rights reserved.
SEO by vBSEO
Image resizer by SevenSkins