Regístrate gratis¡Bienvenido a mundodvd! Regístrate ahora y accede a todos los contenidos de la web. El registro es totalmente gratuito y obtendrás muchas ventajas.
Blu-ray, DVD y cine en casa
Regístrate gratis!
Registro en mundodvd
+ Responder tema
Resultados 1 al 4 de 4

Tema: Como puedo unir 2 imagenes de cds de audio?

  1. #1
    Q tienes en la cabeza? Avatar de jdeacon
    Fecha de ingreso
    23 jun, 03
    Mensajes
    3,998
    Agradecido
    11 veces

    Predeterminado Como puedo unir 2 imagenes de cds de audio?

    Saludos. Tengo varios cds de audio en imagenes ^.cue ^.flac. El caso es que las 2 imagenes entrarian en 1 cd, y no es por racaneria y no gastar 2 cds; es por comodidad ya que cuando me pongo a oir musica prefiero no levantarme en 80 minutos, al estar levantandome cada 40 minutos.

    Sabeis la manera de poder unir las 2 imagenes de tal manera que haciendo con el nero el cd de audio entren las 2, respetando los cortes de las canciones.
    Yo lo unico que he probado es abrir cd de audio con el nero, arrastrar un archivo flac, y despues otro; pero claro luego el reproductor te lo lee como 2 unicas pistas, con lo cual no puedes reproducir cancion por cancion, va todo del tiron.

    Alguna solucion?

  2. #2
    aprendiz
    Fecha de ingreso
    02 sep, 05
    Mensajes
    50
    Agradecido
    0 veces

    Predeterminado Re:

    Se me ocurre que editando uno de los dos archivos CUE que tienes y dentro de este, agregando el nombre de la otra Imagen con su respectiva informacion, podrias solucionarlo.

    Saludos
    "I spent so much time.... believing all the lies... to keep the dream alive!.... Now it makes me sad... "

  3. #3
    aprendiz
    Fecha de ingreso
    02 sep, 05
    Mensajes
    50
    Agradecido
    0 veces

    Predeterminado Re: Como puedo unir 2 imagenes de cds de audio?

    Explico lo anterior:
    Usando el Bloc de notas editamos el archivo CUE

    PERFORMER "Paul Oakenfold"
    TITLE "Resident. 2 Years of Oakenfold at Cream (CD one)"
    FILE "CDImage.wav" WAVE
    TRACK 01 AUDIO
    TITLE "Mystery Land - Y Traxx"
    PERFORMER "Paul Oakenfold"
    INDEX 01 00:00:00
    TRACK 02 AUDIO
    TITLE "Butterfly - Tilt"
    PERFORMER "Paul Oakenfold"
    INDEX 01 05:27:17
    Suponiendo que este es el último track, procedemos a agregar nuestro otro archivo imagen
    FILE "CDImage2.wav" WAVE
    TRACK 01 AUDIO
    TITLE "Summersault"
    PERFORMER "Taste Xperience Feat. Natasha Pearl"
    INDEX 01 00:00:00
    TRACK 02 AUDIO
    TITLE "Wide Open Space (Perfecto Mix)"
    PERFORMER "Mansun"
    INDEX 01 08:18:00
    TRACK 03 AUDIO
    TITLE "Rendezvous"
    PERFORMER "Tilt"
    INDEX 01 14:33:00

    Una vez finalizado la edición, abre el archivo cue con el Nero y fijate si aparecen todos los tracks de ambas imagenes

    Saludos
    "I spent so much time.... believing all the lies... to keep the dream alive!.... Now it makes me sad... "

  4. #4
    Q tienes en la cabeza? Avatar de jdeacon
    Fecha de ingreso
    23 jun, 03
    Mensajes
    3,998
    Agradecido
    11 veces

    Predeterminado Re: Como puedo unir 2 imagenes de cds de audio?

    mil gracias, es una explicacion logica y coherente que habia pasado por alto..
    Probare y comentare..

    Saludos y gracias de nuevo.

+ Responder tema

Permisos de publicación

  • No puedes crear nuevos temas
  • No puedes responder temas
  • No puedes subir archivos adjuntos
  • No puedes editar tus mensajes
  •  
Powered by vBulletin® Version 4.2.1
Copyright © 2020 vBulletin Solutions, Inc. All rights reserved.
SEO by vBSEO
Image resizer by SevenSkins