Regístrate gratis¡Bienvenido a mundodvd! Regístrate ahora y accede a todos los contenidos de la web. El registro es totalmente gratuito y obtendrás muchas ventajas.
Blu-ray, DVD y cine en casa
Regístrate gratis!
Registro en mundodvd
+ Responder tema
Página 9 de 10 PrimerPrimer ... 78910 ÚltimoÚltimo
Resultados 201 al 225 de 248

Tema: Batman Begins (Cristopher Nolan, 2005) y secuelas

  1. #201
    Super Moderador Avatar de repopo
    Fecha de ingreso
    13 nov, 03
    Mensajes
    25,076
    Agradecido
    37992 veces

    Predeterminado Re: Batman Begins (Cristopher Nolan, 2005) y secuelas

    ¿Preciosas?

  2. #202
    El Tito Cruzcampo!!! Avatar de LOBOMORDEDOR
    Fecha de ingreso
    08 ago, 09
    Ubicación
    JEREZ DE LA FRONTERA (Cádiz)
    Mensajes
    6,816
    Agradecido
    16175 veces

    Predeterminado Re: Batman Begins (Cristopher Nolan, 2005) y secuelas

    Aunque sean las imágenes que ya conocemos de otras ediciones, a mi me lo parecen y como siempre digo, para gustos colores.

    Por tu "pregunta", deduzco que a ti no te gustan no Repopo?

  3. #203
    gurú Avatar de Lobram
    Fecha de ingreso
    19 mar, 09
    Ubicación
    Bizkaia
    Mensajes
    7,351
    Agradecido
    8925 veces

    Predeterminado Re: Batman Begins (Cristopher Nolan, 2005) y secuelas

    Son las mismas que las ediciones UHD.

    A mí me gustan
    TV LG OLED 55E6V HDR Premium
    Reproductor OPPO UDP-203
    Receptor SONY STR-DN1010
    Subwoofer BK XLS200 MKII 275W
    Altavoces 5.1 POLK AUDIO RTi A1, CSi A4 y OWM 3

  4. #204
    Super Moderador Avatar de repopo
    Fecha de ingreso
    13 nov, 03
    Mensajes
    25,076
    Agradecido
    37992 veces

    Predeterminado Re: Batman Begins (Cristopher Nolan, 2005) y secuelas

    No me gustan nada. Es un recorta-pega sin ninguna inventiva. Incluso la de Bane es la peor de todas... un tercio del motivo es su hombro.

    Aunque no es lo peor que he visto ultimamente (cofcofjurassicworld2cofcof), siento que el arte del diseño muere un poco cada vez que se aprueban diseños como estos.

  5. #205
    Velocidad terminal Avatar de THE_FLASH
    Fecha de ingreso
    09 abr, 07
    Ubicación
    VALENCIA
    Mensajes
    15,669
    Agradecido
    9579 veces

    Predeterminado Re: Batman Begins (Cristopher Nolan, 2005) y secuelas

    Estoy con vosotros. Me parecen una chulada. Y me encanta que cada una de ellas esté dedicada a cada personaje, y cada una de ellas manteniendo el tono lúgubre y desafiante de la saga.
    gymnos y varo han agradecido esto.
    TV LG 65C6V OLED 65", Reproductor 4K Samsung UBD-K8500, Amplificador Denon 1911, Altavoces Bosé Acousticmass 10

  6. #206
    Anda, alégrame el día. Avatar de varo
    Fecha de ingreso
    18 nov, 17
    Mensajes
    11,869
    Agradecido
    12115 veces

    Predeterminado Re: Batman Begins (Cristopher Nolan, 2005) y secuelas

    Cita Iniciado por THE_FLASH Ver mensaje
    Estoy con vosotros. Me parecen una chulada. Y me encanta que cada una de ellas esté dedicada a cada personaje, y cada una de ellas manteniendo el tono lúgubre y desafiante de la saga.
    a mi me gustan tambien,
    " Quod in hac vita facimus, vocem aeternitate habet"

  7. #207
    sabio Avatar de Ludovico
    Fecha de ingreso
    04 oct, 13
    Mensajes
    3,647
    Agradecido
    10275 veces

    Predeterminado Re: Batman Begins (Cristopher Nolan, 2005) y secuelas

    A mí tampoco me gustan, donde esté un cartel de estreno que se quite cualquier pegote posterior.

  8. #208
    adicto Avatar de Pedrocrack
    Fecha de ingreso
    02 jul, 12
    Mensajes
    122
    Agradecido
    19 veces

    Predeterminado Re: Batman Begins (Cristopher Nolan, 2005) y secuelas

    Batman begins a 11 euros , lo raro es que hay otro a 25 , será que no es en 4k?

    https://www.amazon.es/Batman-Begins-...2-d6e41769fd4c

    https://www.amazon.es/Batman-Begins-...d%2C395&sr=1-1

  9. #209
    adicto Avatar de ClocPok
    Fecha de ingreso
    20 abr, 19
    Mensajes
    247
    Agradecido
    704 veces

    Predeterminado Re: Batman Begins (Cristopher Nolan, 2005) y secuelas

    Cita Iniciado por Pedrocrack Ver mensaje
    Batman begins a 11 euros , lo raro es que hay otro a 25 , será que no es en 4k?

    https://www.amazon.es/Batman-Begins-...2-d6e41769fd4c

    https://www.amazon.es/Batman-Begins-...d%2C395&sr=1-1
    La primera es la versión italiana (tiene castellano en el 4k) y la segunda es la edición española que es más cara.
    Pedrocrack ha agradecido esto.
    Tv: LG OLED55C8
    Reproductor: Panasonic DP-UB820EB

    AVR: Denon x3700H
    Frontales: Klipsch RP-160M
    Central: Klipsch RP-440C
    Laterales: Klipsch RP-400M
    Traseros: Klipsch RP-160M
    Subwoofer: Klipsch RP-112SW
    Atmos: Dynavoice FX-4 (x4)

  10. #210
    Super Moderador Avatar de repopo
    Fecha de ingreso
    13 nov, 03
    Mensajes
    25,076
    Agradecido
    37992 veces

    Predeterminado Re: Batman Begins (Cristopher Nolan, 2005) y secuelas

    El de 11€ es italiano. El caro es el español.
    Pedrocrack ha agradecido esto.

  11. #211
    sabio Avatar de Conrado77
    Fecha de ingreso
    19 dic, 15
    Ubicación
    Barcelona
    Mensajes
    2,685
    Agradecido
    12872 veces

    Predeterminado Re: Batman Begins (Cristopher Nolan, 2005) y secuelas

    BDInfo de la trilogía UHD. Discos de España:

    - Batman Begins:

    Código:
    DISC INFO:
    
    Disc Title:     Batman Begins
    Disc Label:     BATMAN_BEGINS
    Disc Size:      79,238,267,875 bytes
    Protection:     AACS2
    Extras:         Ultra HD, BD-Java
    BDInfo:         0.7.5.5
    
    PLAYLIST REPORT:
    
    Name:                   00020.MPLS
    Length:                 2:20:03.895 (h:m:s.ms)
    Size:                   78,560,759,808 bytes
    Total Bitrate:          74.79 Mbps
    
    (*) Indicates included stream hidden by this playlist.
    
    VIDEO:
    
    Codec                   Bitrate             Description     
    -----                   -------             -----------     
    MPEG-H HEVC Video       52616 kbps          2160p / 23.976 fps / 16:9 / Main 10 @ Level 5.1 @ High / 10 bits / HDR10 / BT.2020
    
    AUDIO:
    
    Codec                           Language        Bitrate         Description     
    -----                           --------        -------         -----------     
    DTS-HD Master Audio             English         4382 kbps       5.1 / 48 kHz /  4382 kbps / 24-bit (DTS Core: 5.1 / 48 kHz /  1509 kbps / 24-bit)
    * Dolby Digital Audio           English         448 kbps        5.1 / 48 kHz /   448 kbps / DN -27dB
    * DTS-HD Master Audio           French          2292 kbps       5.1 / 48 kHz /  2292 kbps / 16-bit (DTS Core: 5.1 / 48 kHz /  1509 kbps / 16-bit)
    * DTS-HD Master Audio           German          2316 kbps       5.1 / 48 kHz /  2316 kbps / 16-bit (DTS Core: 5.1 / 48 kHz /  1509 kbps / 16-bit)
    * Dolby Digital Audio           Italian         640 kbps        5.1 / 48 kHz /   640 kbps / DN -27dB
    * Dolby Digital Audio           Spanish         640 kbps        5.1 / 48 kHz /   640 kbps / DN -27dB
    * Dolby Digital Audio           Chinese         448 kbps        5.1 / 48 kHz /   448 kbps / DN -27dB
    * Dolby Digital Audio           Spanish         640 kbps        5.1 / 48 kHz /   640 kbps / DN -27dB
    * Dolby Digital Audio           Portuguese      640 kbps        5.1 / 48 kHz /   640 kbps / DN -27dB
    * Dolby Digital Audio           Czech           640 kbps        5.1 / 48 kHz /   640 kbps / DN -27dB
    * Dolby Digital Audio           Hungarian       640 kbps        5.1 / 48 kHz /   640 kbps / DN -27dB
    * Dolby Digital Audio           Polish          640 kbps        5.1 / 48 kHz /   640 kbps / DN -27dB
    * Dolby Digital Audio           Russian         640 kbps        5.1 / 48 kHz /   640 kbps / DN -27dB
    * Dolby Digital Audio           Thai            640 kbps        5.1 / 48 kHz /   640 kbps / DN -27dB
    * Dolby Digital Audio           Turkish         640 kbps        5.1 / 48 kHz /   640 kbps / DN -27dB
    Dolby Digital Audio             Japanese        640 kbps        5.1 / 48 kHz /   640 kbps / DN -27dB
    
    SUBTITLES:
    
    Codec                           Language        Bitrate         Description     
    -----                           --------        -------         -----------     
    Presentation Graphics           English         30.063 kbps                     
    * Presentation Graphics         French          22.615 kbps                     
    * Presentation Graphics         German          34.595 kbps                     
    * Presentation Graphics         Italian         27.561 kbps                     
    * Presentation Graphics         Spanish         26.532 kbps                     
    * Presentation Graphics         Dutch           24.267 kbps                     
    * Presentation Graphics         Chinese         22.772 kbps                     
    * Presentation Graphics         Chinese         22.905 kbps                     
    * Presentation Graphics         Chinese         22.659 kbps                     
    * Presentation Graphics         Korean          15.810 kbps                     
    * Presentation Graphics         Spanish         26.497 kbps                     
    * Presentation Graphics         Portuguese      26.917 kbps                     
    * Presentation Graphics         Arabic          15.249 kbps                     
    * Presentation Graphics         Croatian        21.074 kbps                     
    * Presentation Graphics         Czech           26.008 kbps                     
    * Presentation Graphics         Danish          23.384 kbps                     
    * Presentation Graphics         Finnish         25.555 kbps                     
    * Presentation Graphics         Greek           24.209 kbps                     
    * Presentation Graphics         Hebrew          21.488 kbps                     
    * Presentation Graphics         Hungarian       22.421 kbps                     
    * Presentation Graphics         Norwegian       27.772 kbps                     
    * Presentation Graphics         Polish          25.980 kbps                     
    * Presentation Graphics         Portuguese      28.990 kbps                     
    * Presentation Graphics         Romanian        25.532 kbps                     
    * Presentation Graphics         Russian         27.068 kbps                     
    * Presentation Graphics         Swedish         22.493 kbps                     
    * Presentation Graphics         Thai            26.427 kbps                     
    * Presentation Graphics         Turkish         27.456 kbps                     
    * Presentation Graphics         German          0.014 kbps                      
    Presentation Graphics           Japanese        19.937 kbps                     
    Presentation Graphics           Japanese        0.100 kbps                      
    
    FILES:
    
    Name            Time In         Length          Size            Total Bitrate   
    ----            -------         ------          ----            -------------   
    00030.M2TS      0:00:00.000     2:20:03.895     78,560,759,808  74,785          
    
    CHAPTERS:
    
    Number          Time In         Length          Avg Video Rate  Max 1-Sec Rate  Max 1-Sec Time  Max 5-Sec Rate  Max 5-Sec Time  Max 10Sec Rate  Max 10Sec Time  Avg Frame Size  Max Frame Size  Max Frame Time  
    ------          -------         ------          --------------  --------------  --------------  --------------  --------------  --------------  --------------  --------------  --------------  --------------  
    1               0:00:00.000     0:03:39.385     52,155 kbps     84,215 kbps     00:02:09.420    66,785 kbps     00:00:18.143    63,720 kbps     00:00:30.071    0 bytes         1,242,146 bytes 00:01:15.867    
    2               0:03:39.385     0:03:51.940     52,193 kbps     92,151 kbps     00:04:00.198    66,739 kbps     00:04:00.198    62,651 kbps     00:06:26.052    0 bytes         1,135,963 bytes 00:04:00.240    
    3               0:07:31.325     0:04:02.784     53,313 kbps     77,182 kbps     00:09:55.553    70,372 kbps     00:07:35.163    67,544 kbps     00:07:31.951    0 bytes         1,028,069 bytes 00:09:55.595    
    4               0:11:34.110     0:04:41.572     51,308 kbps     89,258 kbps     00:15:49.865    70,537 kbps     00:12:18.362    68,955 kbps     00:12:12.481    0 bytes         1,188,159 bytes 00:15:44.443    
    5               0:16:15.683     0:03:28.750     50,029 kbps     86,918 kbps     00:16:28.904    61,109 kbps     00:19:00.472    58,380 kbps     00:19:00.472    0 bytes         1,141,944 bytes 00:17:48.067    
    6               0:19:44.433     0:04:35.024     49,748 kbps     91,101 kbps     00:21:57.441    70,756 kbps     00:21:57.441    65,254 kbps     00:21:57.441    0 bytes         1,110,316 bytes 00:21:57.482    
    7               0:24:19.458     0:04:05.411     52,744 kbps     82,740 kbps     00:25:41.039    66,052 kbps     00:24:21.626    61,978 kbps     00:24:19.833    0 bytes         987,491 bytes   00:24:21.126    
    8               0:28:24.869     0:03:00.513     53,913 kbps     96,079 kbps     00:28:24.869    74,625 kbps     00:28:24.869    68,280 kbps     00:28:24.869    0 bytes         969,060 bytes   00:30:21.653    
    9               0:31:25.383     0:04:28.518     54,601 kbps     93,853 kbps     00:34:33.863    64,929 kbps     00:34:32.570    60,202 kbps     00:34:33.863    0 bytes         942,472 bytes   00:32:27.779    
    10              0:35:53.901     0:02:30.775     47,259 kbps     86,439 kbps     00:36:26.017    63,011 kbps     00:36:38.905    57,916 kbps     00:36:38.905    0 bytes         1,108,786 bytes 00:36:40.031    
    11              0:38:24.677     0:02:50.003     53,406 kbps     91,472 kbps     00:38:59.712    65,746 kbps     00:40:23.712    61,164 kbps     00:39:57.019    0 bytes         920,075 bytes   00:40:29.844    
    12              0:41:14.680     0:01:53.530     45,300 kbps     63,613 kbps     00:43:02.079    53,604 kbps     00:43:00.911    49,424 kbps     00:42:54.863    0 bytes         722,942 bytes   00:41:16.348    
    13              0:43:08.210     0:03:49.729     56,577 kbps     87,649 kbps     00:44:47.226    73,591 kbps     00:45:08.914    68,987 kbps     00:45:05.244    0 bytes         966,854 bytes   00:45:05.536    
    14              0:46:57.940     0:02:45.999     51,596 kbps     75,605 kbps     00:48:06.008    63,393 kbps     00:47:49.116    57,642 kbps     00:49:06.193    0 bytes         887,120 bytes   00:48:06.049    
    15              0:49:43.939     0:03:42.221     56,536 kbps     93,629 kbps     00:50:35.574    68,133 kbps     00:51:56.822    65,836 kbps     00:51:51.149    0 bytes         1,092,371 bytes 00:50:35.615    
    16              0:53:26.161     0:02:28.982     54,282 kbps     92,848 kbps     00:54:27.806    68,387 kbps     00:54:07.619    62,745 kbps     00:54:07.619    0 bytes         1,004,873 bytes 00:54:10.205    
    17              0:55:55.143     0:02:07.210     54,340 kbps     94,393 kbps     00:56:23.922    68,303 kbps     00:56:23.880    62,244 kbps     00:56:19.959    0 bytes         1,015,861 bytes 00:56:23.963    
    18              0:58:02.353     0:05:29.495     52,110 kbps     90,819 kbps     00:58:20.038    66,256 kbps     01:02:10.143    61,147 kbps     01:02:10.143    0 bytes         1,050,784 bytes 01:01:17.465    
    19              1:03:31.849     0:02:21.224     52,535 kbps     72,530 kbps     01:03:36.062    69,087 kbps     01:05:06.319    66,907 kbps     01:05:03.441    0 bytes         901,091 bytes   01:03:32.642    
    20              1:05:53.074     0:02:45.874     55,294 kbps     82,718 kbps     01:06:31.404    65,820 kbps     01:07:53.736    64,604 kbps     01:07:51.233    0 bytes         872,249 bytes   01:07:54.278    
    21              1:08:38.948     0:02:46.916     54,567 kbps     85,688 kbps     01:09:27.580    73,287 kbps     01:08:39.448    66,949 kbps     01:08:38.948    0 bytes         991,261 bytes   01:08:40.574    
    22              1:11:25.864     0:01:53.655     55,100 kbps     100,867 kbps    01:11:31.704    76,882 kbps     01:11:28.993    72,497 kbps     01:11:28.867    0 bytes         1,053,292 bytes 01:11:31.745    
    23              1:13:19.520     0:02:56.718     50,848 kbps     84,361 kbps     01:14:50.235    70,713 kbps     01:14:47.900    66,554 kbps     01:14:43.604    0 bytes         874,499 bytes   01:13:22.940    
    24              1:16:16.238     0:03:34.213     54,671 kbps     89,303 kbps     01:18:44.136    78,007 kbps     01:18:28.954    71,998 kbps     01:18:28.787    0 bytes         939,290 bytes   01:18:32.165    
    25              1:19:50.452     0:04:03.910     51,703 kbps     84,364 kbps     01:22:41.498    75,340 kbps     01:22:41.498    67,672 kbps     01:22:41.498    0 bytes         863,498 bytes   01:21:02.649    
    26              1:23:54.362     0:05:08.391     51,064 kbps     87,572 kbps     01:27:16.314    61,063 kbps     01:27:14.979    57,736 kbps     01:23:54.863    0 bytes         880,235 bytes   01:27:16.356    
    27              1:29:02.754     0:03:34.005     54,495 kbps     92,260 kbps     01:31:26.481    71,973 kbps     01:31:34.572    64,163 kbps     01:31:29.317    0 bytes         1,002,188 bytes 01:31:26.606    
    28              1:32:36.759     0:05:12.353     53,662 kbps     82,398 kbps     01:35:36.355    66,186 kbps     01:35:34.270    61,147 kbps     01:35:28.973    0 bytes         975,288 bytes   01:35:36.856    
    29              1:37:49.113     0:02:44.664     47,985 kbps     62,745 kbps     01:37:50.739    55,402 kbps     01:37:49.572    54,775 kbps     01:37:49.738    0 bytes         720,789 bytes   01:37:49.905    
    30              1:40:33.777     0:04:35.358     53,212 kbps     85,024 kbps     01:43:40.255    64,178 kbps     01:43:40.047    59,460 kbps     01:40:34.403    0 bytes         889,723 bytes   01:43:41.048    
    31              1:45:09.136     0:04:23.054     53,255 kbps     96,298 kbps     01:49:01.576    65,922 kbps     01:48:58.657    65,372 kbps     01:48:54.110    0 bytes         1,062,011 bytes 01:45:27.404    
    32              1:49:32.190     0:01:57.158     53,299 kbps     76,226 kbps     01:50:47.057    66,195 kbps     01:49:44.160    62,200 kbps     01:50:01.761    0 bytes         988,105 bytes   01:50:40.675    
    33              1:51:29.349     0:03:19.741     55,785 kbps     92,848 kbps     01:52:35.790    73,366 kbps     01:52:34.831    69,333 kbps     01:52:30.076    0 bytes         1,237,980 bytes 01:53:48.738    
    34              1:54:49.090     0:03:22.035     51,389 kbps     87,681 kbps     01:57:57.111    68,794 kbps     01:55:55.490    62,857 kbps     01:55:51.194    0 bytes         1,192,391 bytes 01:55:59.452    
    35              1:58:11.125     0:03:43.973     54,844 kbps     76,547 kbps     02:00:15.208    63,381 kbps     02:01:19.522    60,581 kbps     02:01:44.505    0 bytes         856,262 bytes   02:01:54.473    
    36              2:01:55.099     0:03:06.185     58,149 kbps     78,735 kbps     02:03:44.041    68,696 kbps     02:03:57.138    66,115 kbps     02:03:56.011    0 bytes         928,238 bytes   02:03:44.125    
    37              2:05:01.285     0:01:05.690     56,817 kbps     92,951 kbps     02:05:50.668    66,972 kbps     02:05:50.334    60,953 kbps     02:05:27.061    0 bytes         949,815 bytes   02:05:31.482    
    38              2:06:06.976     0:03:11.608     55,709 kbps     93,944 kbps     02:07:52.790    66,157 kbps     02:07:52.790    61,289 kbps     02:07:49.244    0 bytes         1,024,241 bytes 02:07:52.831    
    39              2:09:18.584     0:01:38.681     54,235 kbps     85,041 kbps     02:09:54.578    66,495 kbps     02:09:54.578    62,545 kbps     02:09:54.411    0 bytes         1,115,397 bytes 02:10:56.223    
    40              2:10:57.266     0:09:06.629     46,630 kbps     61,604 kbps     02:13:59.114    56,168 kbps     02:13:58.739    55,020 kbps     02:13:58.739    0 bytes         963,454 bytes   02:20:00.850
    - El caballero oscuro:

    Código:
    DISC INFO:
    
    Disc Title:     The Dark Knight
    Disc Label:     THE_DARK_KNIGHT
    Disc Size:      72,895,082,219 bytes
    Protection:     AACS2
    Extras:         Ultra HD, BD-Java
    BDInfo:         0.7.5.5
    
    PLAYLIST REPORT:
    
    Name:                   00020.MPLS
    Length:                 2:32:12.248 (h:m:s.ms)
    Size:                   72,318,400,512 bytes
    Total Bitrate:          63.35 Mbps
    
    (*) Indicates included stream hidden by this playlist.
    
    VIDEO:
    
    Codec                   Bitrate             Description     
    -----                   -------             -----------     
    MPEG-H HEVC Video       47159 kbps          2160p / 23.976 fps / 16:9 / Main 10 @ Level 5.1 @ High / 10 bits / HDR10 / BT.2020
    
    AUDIO:
    
    Codec                           Language        Bitrate         Description     
    -----                           --------        -------         -----------     
    DTS-HD Master Audio             English         3814 kbps       5.1 / 48 kHz /  3814 kbps / 24-bit (DTS Core: 5.1 / 48 kHz /  1509 kbps / 24-bit)
    * Dolby Digital Audio           English         192 kbps        2.0 / 48 kHz /   192 kbps / DN -31dB / Dolby Surround
    * DTS-HD Master Audio           French          2262 kbps       5.1 / 48 kHz /  2262 kbps / 16-bit (DTS Core: 5.1 / 48 kHz /  1509 kbps / 16-bit)
    * DTS-HD Master Audio           German          2262 kbps       5.1 / 48 kHz /  2262 kbps / 16-bit (DTS Core: 5.1 / 48 kHz /  1509 kbps / 16-bit)
    * Dolby Digital Audio           Italian         448 kbps        5.1 / 48 kHz /   448 kbps / DN -31dB
    * Dolby Digital Audio           Spanish         448 kbps        5.1 / 48 kHz /   448 kbps / DN -31dB
    * Dolby Digital Audio           Czech           448 kbps        5.1 / 48 kHz /   448 kbps / DN -31dB
    * Dolby Digital Audio           Hungarian       448 kbps        5.1 / 48 kHz /   448 kbps / DN -31dB
    * Dolby Digital Audio           Polish          448 kbps        5.1 / 48 kHz /   448 kbps / DN -31dB
    * Dolby Digital Audio           Russian         640 kbps        5.1 / 48 kHz /   640 kbps / DN -27dB
    Dolby Digital Audio             Japanese        448 kbps        5.1 / 48 kHz /   448 kbps / DN -31dB
    
    SUBTITLES:
    
    Codec                           Language        Bitrate         Description     
    -----                           --------        -------         -----------     
    Presentation Graphics           English         38.415 kbps                     
    * Presentation Graphics         French          28.311 kbps                     
    * Presentation Graphics         German          44.826 kbps                     
    * Presentation Graphics         Italian         40.153 kbps                     
    * Presentation Graphics         Spanish         33.595 kbps                     
    * Presentation Graphics         Dutch           28.930 kbps                     
    * Presentation Graphics         Chinese         29.716 kbps                     
    * Presentation Graphics         Chinese         29.900 kbps                     
    * Presentation Graphics         Korean          20.344 kbps                     
    * Presentation Graphics         Arabic          17.621 kbps                     
    * Presentation Graphics         Czech           29.712 kbps                     
    * Presentation Graphics         Croatian        29.489 kbps                     
    * Presentation Graphics         Danish          30.041 kbps                     
    * Presentation Graphics         Finnish         30.274 kbps                     
    * Presentation Graphics         Greek           35.651 kbps                     
    * Presentation Graphics         Hungarian       27.988 kbps                     
    * Presentation Graphics         Norwegian       31.840 kbps                     
    * Presentation Graphics         Polish          33.627 kbps                     
    * Presentation Graphics         Portuguese      33.838 kbps                     
    * Presentation Graphics         Romanian        31.509 kbps                     
    * Presentation Graphics         Russian         32.699 kbps                     
    * Presentation Graphics         Swedish         29.241 kbps                     
    * Presentation Graphics         French          0.214 kbps                      
    * Presentation Graphics         Czech           0.279 kbps                      
    * Presentation Graphics         Spanish         0.275 kbps                      
    * Presentation Graphics         Italian         0.350 kbps                      
    * Presentation Graphics         Polish          0.349 kbps                      
    * Presentation Graphics         Russian         0.350 kbps                      
    * Presentation Graphics         Hungarian       0.268 kbps                      
    * Presentation Graphics         German          0.045 kbps                      
    Presentation Graphics           Japanese        25.196 kbps                     
    Presentation Graphics           Japanese        0.243 kbps                      
    
    FILES:
    
    Name            Time In         Length          Size            Total Bitrate   
    ----            -------         ------          ----            -------------   
    00030.M2TS      0:00:00.000     2:32:12.248     72,318,400,512  63,352          
    
    CHAPTERS:
    
    Number          Time In         Length          Avg Video Rate  Max 1-Sec Rate  Max 1-Sec Time  Max 5-Sec Rate  Max 5-Sec Time  Max 10Sec Rate  Max 10Sec Time  Avg Frame Size  Max Frame Size  Max Frame Time  
    ------          -------         ------          --------------  --------------  --------------  --------------  --------------  --------------  --------------  --------------  --------------  --------------  
    1               0:00:00.000     0:06:25.927     51,289 kbps     97,562 kbps     00:02:36.948    68,751 kbps     00:01:59.035    62,592 kbps     00:06:15.875    0 bytes         1,772,090 bytes 00:01:20.080    
    2               0:06:25.927     0:04:10.208     49,129 kbps     101,404 kbps    00:06:28.054    67,224 kbps     00:06:25.927    56,609 kbps     00:09:32.613    0 bytes         1,753,429 bytes 00:06:28.388    
    3               0:10:36.135     0:03:16.404     43,142 kbps     82,839 kbps     00:12:53.731    60,736 kbps     00:11:50.835    55,860 kbps     00:11:48.749    0 bytes         973,442 bytes   00:11:36.696    
    4               0:13:52.540     0:04:01.616     45,178 kbps     83,495 kbps     00:14:10.808    56,102 kbps     00:14:10.140    54,392 kbps     00:16:17.935    0 bytes         1,001,196 bytes 00:17:54.156    
    5               0:17:54.156     0:03:45.141     45,012 kbps     79,705 kbps     00:18:02.039    61,784 kbps     00:17:54.323    57,974 kbps     00:17:54.156    0 bytes         1,173,733 bytes 00:17:54.948    
    6               0:21:39.298     0:04:30.687     47,945 kbps     78,771 kbps     00:22:19.546    59,863 kbps     00:22:27.220    56,475 kbps     00:23:08.261    0 bytes         958,074 bytes   00:22:55.999    
    7               0:26:09.985     0:03:26.247     51,131 kbps     94,609 kbps     00:29:29.309    74,948 kbps     00:29:31.227    70,504 kbps     00:29:26.055    0 bytes         1,212,981 bytes 00:28:19.948    
    8               0:29:36.232     0:02:06.209     44,302 kbps     86,490 kbps     00:29:49.996    60,667 kbps     00:29:46.326    54,146 kbps     00:29:41.696    0 bytes         1,292,182 bytes 00:31:42.442    
    9               0:31:42.442     0:06:06.574     52,118 kbps     108,674 kbps    00:35:50.356    78,217 kbps     00:35:49.272    73,258 kbps     00:35:44.225    0 bytes         1,803,085 bytes 00:35:50.398    
    10              0:37:49.016     0:05:45.011     43,626 kbps     74,302 kbps     00:43:33.027    66,771 kbps     00:41:15.222    62,692 kbps     00:41:12.469    0 bytes         2,109,909 bytes 00:43:34.028    
    11              0:43:34.028     0:03:05.476     49,192 kbps     115,034 kbps    00:43:34.028    78,344 kbps     00:43:34.028    68,015 kbps     00:43:34.028    0 bytes         1,538,244 bytes 00:43:34.069    
    12              0:46:39.505     0:02:18.221     46,722 kbps     65,208 kbps     00:48:53.889    57,548 kbps     00:48:50.802    54,295 kbps     00:48:45.797    0 bytes         814,840 bytes   00:47:34.351    
    13              0:48:57.726     0:04:21.678     52,438 kbps     93,641 kbps     00:49:16.453    68,752 kbps     00:49:13.909    63,964 kbps     00:49:10.155    0 bytes         1,008,863 bytes 00:49:16.495    
    14              0:53:19.404     0:03:56.194     45,086 kbps     81,718 kbps     00:56:38.895    59,103 kbps     00:54:17.420    56,543 kbps     00:54:17.212    0 bytes         960,830 bytes   00:56:38.937    
    15              0:57:15.598     0:02:10.713     40,220 kbps     73,976 kbps     00:58:06.983    54,282 kbps     00:58:59.536    53,655 kbps     00:58:55.073    0 bytes         1,127,187 bytes 00:59:26.312    
    16              0:59:26.312     0:04:33.231     50,048 kbps     96,616 kbps     01:00:06.311    78,485 kbps     01:00:06.311    72,071 kbps     01:00:06.311    0 bytes         1,498,741 bytes 00:59:28.856    
    17              1:03:59.544     0:04:23.972     41,503 kbps     79,199 kbps     01:05:26.589    57,503 kbps     01:04:22.233    54,449 kbps     01:04:18.020    0 bytes         860,681 bytes   01:05:52.865    
    18              1:08:23.516     0:02:24.769     38,227 kbps     65,583 kbps     01:09:48.184    54,013 kbps     01:09:44.180    44,875 kbps     01:09:39.967    0 bytes         770,896 bytes   01:09:47.892    
    19              1:10:48.285     0:03:36.591     44,763 kbps     88,583 kbps     01:14:09.111    59,299 kbps     01:14:05.607    56,676 kbps     01:13:45.879    0 bytes         1,117,848 bytes 01:14:09.153    
    20              1:14:24.877     0:03:40.720     55,564 kbps     105,175 kbps    01:17:58.757    75,414 kbps     01:17:58.590    67,413 kbps     01:17:52.042    0 bytes         1,611,418 bytes 01:17:54.294    
    21              1:18:05.597     0:04:16.798     55,673 kbps     92,790 kbps     01:20:01.463    71,076 kbps     01:19:58.960    65,969 kbps     01:20:48.343    0 bytes         1,833,166 bytes 01:21:19.583    
    22              1:22:22.395     0:02:26.146     48,123 kbps     72,649 kbps     01:24:11.713    62,266 kbps     01:23:21.913    59,162 kbps     01:23:17.617    0 bytes         1,186,697 bytes 01:22:33.990    
    23              1:24:48.541     0:05:59.859     45,805 kbps     83,031 kbps     01:30:02.647    60,606 kbps     01:30:00.686    56,243 kbps     01:29:53.805    0 bytes         929,029 bytes   01:30:02.688    
    24              1:30:48.401     0:03:16.529     47,654 kbps     84,718 kbps     01:32:58.823    59,408 kbps     01:32:58.072    54,092 kbps     01:32:53.192    0 bytes         903,416 bytes   01:31:31.569    
    25              1:34:04.930     0:05:52.810     47,088 kbps     83,816 kbps     01:34:26.911    66,720 kbps     01:36:42.588    65,667 kbps     01:36:42.588    0 bytes         1,651,836 bytes 01:37:21.126    
    26              1:39:57.741     0:02:07.710     45,432 kbps     81,218 kbps     01:40:15.259    62,876 kbps     01:40:12.881    57,703 kbps     01:40:10.504    0 bytes         933,672 bytes   01:40:15.300    
    27              1:42:05.452     0:02:54.424     51,056 kbps     79,495 kbps     01:44:07.282    74,062 kbps     01:44:03.946    65,332 kbps     01:43:59.233    0 bytes         909,582 bytes   01:44:05.656    
    28              1:44:59.876     0:02:00.954     53,282 kbps     77,610 kbps     01:46:35.847    67,922 kbps     01:46:32.636    63,669 kbps     01:46:32.594    0 bytes         1,270,684 bytes 01:46:01.813    
    29              1:47:00.831     0:04:09.040     45,597 kbps     80,990 kbps     01:50:30.999    65,899 kbps     01:49:23.265    61,028 kbps     01:49:20.887    0 bytes         1,294,975 bytes 01:49:28.853    
    30              1:51:09.871     0:03:04.726     50,874 kbps     85,879 kbps     01:52:01.005    74,496 kbps     01:52:45.925    68,310 kbps     01:52:43.548    0 bytes         1,576,805 bytes 01:53:09.032    
    31              1:54:14.597     0:02:49.377     46,774 kbps     78,999 kbps     01:56:29.357    66,697 kbps     01:55:57.742    59,396 kbps     01:56:38.741    0 bytes         2,106,412 bytes 01:57:03.975    
    32              1:57:03.975     0:03:10.231     46,688 kbps     91,826 kbps     01:57:03.975    73,522 kbps     01:57:03.975    64,217 kbps     01:57:03.975    0 bytes         1,501,586 bytes 01:57:04.767    
    33              2:00:14.207     0:03:23.328     47,057 kbps     84,524 kbps     02:00:56.624    67,470 kbps     02:01:31.867    59,745 kbps     02:01:27.446    0 bytes         1,135,611 bytes 02:00:56.666    
    34              2:03:37.535     0:05:30.038     48,357 kbps     82,665 kbps     02:07:19.131    71,066 kbps     02:08:01.173    65,029 kbps     02:07:12.124    0 bytes         1,504,082 bytes 02:08:22.111    
    35              2:09:07.573     0:03:19.699     57,763 kbps     104,569 kbps    02:11:44.479    81,561 kbps     02:11:44.354    78,791 kbps     02:11:44.354    0 bytes         1,308,251 bytes 02:11:44.521    
    36              2:12:27.272     0:02:55.466     57,208 kbps     96,565 kbps     02:12:51.797    82,941 kbps     02:12:51.797    74,603 kbps     02:13:09.231    0 bytes         1,250,933 bytes 02:12:39.534    
    37              2:15:22.739     0:04:35.900     57,171 kbps     91,688 kbps     02:15:49.975    71,051 kbps     02:15:46.513    66,175 kbps     02:17:09.888    0 bytes         881,944 bytes   02:16:44.946    
    38              2:19:58.640     0:04:28.017     60,316 kbps     114,655 kbps    02:24:01.591    84,966 kbps     02:22:37.757    79,855 kbps     02:22:37.757    0 bytes         1,825,415 bytes 02:22:38.007    
    39              2:24:26.658     0:07:45.590     14,843 kbps     66,100 kbps     02:32:05.491    47,864 kbps     02:32:05.199    34,796 kbps     02:30:48.330    0 bytes         942,753 bytes   02:32:07.368
    - El caballero oscuro: La leyenda renace:

    Código:
    DISC INFO:
    
    Disc Title:     Dark Knight Rises, The
    Disc Label:     DARK_KNIGHT_RISES
    Disc Size:      94,074,671,060 bytes
    Protection:     AACS2
    Extras:         Ultra HD, BD-Java
    BDInfo:         0.7.5.5
    
    PLAYLIST REPORT:
    
    Name:                   00020.MPLS
    Length:                 2:44:32.279 (h:m:s.ms)
    Size:                   93,495,103,488 bytes
    Total Bitrate:          75.76 Mbps
    
    (*) Indicates included stream hidden by this playlist.
    
    VIDEO:
    
    Codec                   Bitrate             Description     
    -----                   -------             -----------     
    MPEG-H HEVC Video       55805 kbps          2160p / 23.976 fps / 16:9 / Main 10 @ Level 5.1 @ High / 10 bits / HDR10 / BT.2020
    
    AUDIO:
    
    Codec                           Language        Bitrate         Description     
    -----                           --------        -------         -----------     
    DTS-HD Master Audio             English         4037 kbps       5.1 / 48 kHz /  4037 kbps / 24-bit (DTS Core: 5.1 / 48 kHz /  1509 kbps / 24-bit)
    * Dolby Digital Audio           English         448 kbps        5.1 / 48 kHz /   448 kbps / DN -27dB
    * Dolby Digital Audio           French          448 kbps        5.1 / 48 kHz /   448 kbps / DN -27dB
    * DTS-HD Master Audio           French          2345 kbps       5.1 / 48 kHz /  2345 kbps / 16-bit (DTS Core: 5.1 / 48 kHz /  1509 kbps / 16-bit)
    * DTS-HD Master Audio           German          2334 kbps       5.1 / 48 kHz /  2334 kbps / 16-bit (DTS Core: 5.1 / 48 kHz /  1509 kbps / 16-bit)
    * Dolby Digital Audio           Italian         448 kbps        5.1 / 48 kHz /   448 kbps / DN -27dB
    * Dolby Digital Audio           Spanish         448 kbps        5.1 / 48 kHz /   448 kbps / DN -27dB
    * Dolby Digital Audio           Chinese         448 kbps        5.1 / 48 kHz /   448 kbps / DN -27dB
    * Dolby Digital Audio           Spanish         448 kbps        5.1 / 48 kHz /   448 kbps / DN -27dB
    * Dolby Digital Audio           Portuguese      448 kbps        5.1 / 48 kHz /   448 kbps / DN -27dB
    * Dolby Digital Audio           Czech           448 kbps        5.1 / 48 kHz /   448 kbps / DN -27dB
    * Dolby Digital Audio           Hungarian       448 kbps        5.1 / 48 kHz /   448 kbps / DN -27dB
    * Dolby Digital Audio           Polish          448 kbps        5.1 / 48 kHz /   448 kbps / DN -27dB
    * Dolby Digital Audio           Russian         448 kbps        5.1 / 48 kHz /   448 kbps / DN -27dB
    * Dolby Digital Audio           Thai            448 kbps        5.1 / 48 kHz /   448 kbps / DN -27dB
    * Dolby Digital Audio           Turkish         448 kbps        5.1 / 48 kHz /   448 kbps / DN -27dB
    Dolby Digital Audio             Japanese        448 kbps        5.1 / 48 kHz /   448 kbps / DN -27dB
    
    SUBTITLES:
    
    Codec                           Language        Bitrate         Description     
    -----                           --------        -------         -----------     
    Presentation Graphics           English         33.967 kbps                     
    * Presentation Graphics         French          27.183 kbps                     
    * Presentation Graphics         German          39.924 kbps                     
    * Presentation Graphics         Italian         34.588 kbps                     
    * Presentation Graphics         Spanish         30.772 kbps                     
    * Presentation Graphics         Dutch           28.418 kbps                     
    * Presentation Graphics         Chinese         25.503 kbps                     
    * Presentation Graphics         Chinese         25.855 kbps                     
    * Presentation Graphics         Chinese         25.489 kbps                     
    * Presentation Graphics         Korean          20.822 kbps                     
    * Presentation Graphics         Spanish         29.579 kbps                     
    * Presentation Graphics         Portuguese      30.587 kbps                     
    * Presentation Graphics         Arabic          15.928 kbps                     
    * Presentation Graphics         Croatian        26.128 kbps                     
    * Presentation Graphics         Czech           29.143 kbps                     
    * Presentation Graphics         Danish          28.058 kbps                     
    * Presentation Graphics         Finnish         27.240 kbps                     
    * Presentation Graphics         Greek           28.947 kbps                     
    * Presentation Graphics         Hebrew          23.998 kbps                     
    * Presentation Graphics         Hungarian       27.396 kbps                     
    * Presentation Graphics         Norwegian       27.774 kbps                     
    * Presentation Graphics         Polish          26.583 kbps                     
    * Presentation Graphics         Portuguese      31.448 kbps                     
    * Presentation Graphics         Romanian        29.940 kbps                     
    * Presentation Graphics         Russian         22.536 kbps                     
    * Presentation Graphics         Swedish         28.384 kbps                     
    * Presentation Graphics         Thai            27.010 kbps                     
    * Presentation Graphics         Turkish         29.916 kbps                     
    * Presentation Graphics         German          0.189 kbps                      
    Presentation Graphics           Japanese        22.872 kbps                     
    Presentation Graphics           Japanese        0.078 kbps                      
    
    FILES:
    
    Name            Time In         Length          Size            Total Bitrate   
    ----            -------         ------          ----            -------------   
    00030.M2TS      0:00:00.000     2:44:32.279     93,495,103,488  75,764          
    
    CHAPTERS:
    
    Number          Time In         Length          Avg Video Rate  Max 1-Sec Rate  Max 1-Sec Time  Max 5-Sec Rate  Max 5-Sec Time  Max 10Sec Rate  Max 10Sec Time  Avg Frame Size  Max Frame Size  Max Frame Time  
    ------          -------         ------          --------------  --------------  --------------  --------------  --------------  --------------  --------------  --------------  --------------  --------------  
    1               0:00:00.000     0:09:02.792     59,249 kbps     104,739 kbps    00:03:46.142    81,551 kbps     00:02:01.579    78,155 kbps     00:01:59.828    0 bytes         1,802,025 bytes 00:03:46.226    
    2               0:09:02.792     0:10:05.688     54,618 kbps     90,663 kbps     00:14:52.808    73,909 kbps     00:09:19.517    67,850 kbps     00:09:19.225    0 bytes         1,345,502 bytes 00:17:50.319    
    3               0:19:08.480     0:11:07.333     55,695 kbps     90,000 kbps     00:23:07.177    71,149 kbps     00:22:06.366    68,145 kbps     00:22:03.196    0 bytes         1,490,003 bytes 00:23:07.386    
    4               0:30:15.814     0:10:52.943     57,713 kbps     97,182 kbps     00:32:07.884    74,116 kbps     00:32:06.424    70,964 kbps     00:32:01.377    0 bytes         1,640,356 bytes 00:41:08.757    
    5               0:41:08.757     0:10:00.725     59,982 kbps     100,090 kbps    00:44:52.648    74,223 kbps     00:42:22.790    70,019 kbps     00:42:20.120    0 bytes         1,935,923 bytes 00:47:44.194    
    6               0:51:09.483     0:09:20.142     54,514 kbps     95,206 kbps     00:56:01.608    71,249 kbps     00:56:00.940    67,120 kbps     00:56:01.566    0 bytes         1,908,995 bytes 00:54:10.538    
    7               1:00:29.626     0:09:34.365     54,645 kbps     90,157 kbps     01:01:49.205    75,724 kbps     01:09:58.986    72,372 kbps     01:03:28.387    0 bytes         1,372,360 bytes 01:10:03.991    
    8               1:10:03.991     0:10:09.442     58,599 kbps     113,575 kbps    01:12:14.413    80,550 kbps     01:14:33.218    75,736 kbps     01:14:32.926    0 bytes         1,786,417 bytes 01:12:14.872    
    9               1:20:13.433     0:10:47.104     57,584 kbps     103,653 kbps    01:29:43.503    79,420 kbps     01:29:40.833    73,018 kbps     01:29:36.829    0 bytes         1,568,089 bytes 01:29:36.871    
    10              1:31:00.538     0:08:23.711     57,202 kbps     96,118 kbps     01:31:01.289    69,606 kbps     01:34:57.858    66,502 kbps     01:32:38.261    0 bytes         1,796,318 bytes 01:31:01.372    
    11              1:39:24.249     0:09:34.198     56,005 kbps     109,911 kbps    01:45:57.893    84,025 kbps     01:48:47.771    78,810 kbps     01:48:43.600    0 bytes         1,857,592 bytes 01:48:20.952    
    12              1:48:58.448     0:11:23.099     57,852 kbps     94,561 kbps     01:57:34.464    78,837 kbps     01:56:14.175    73,673 kbps     01:56:11.005    0 bytes         2,035,015 bytes 01:57:05.518    
    13              2:00:21.547     0:10:26.083     55,154 kbps     92,777 kbps     02:06:47.391    73,865 kbps     02:02:15.119    72,656 kbps     02:02:10.156    0 bytes         1,729,640 bytes 02:06:47.558    
    14              2:10:47.631     0:08:24.962     58,763 kbps     101,183 kbps    02:11:23.750    88,689 kbps     02:14:51.625    80,660 kbps     02:14:49.289    0 bytes         1,927,851 bytes 02:11:23.834    
    15              2:19:12.594     0:11:01.994     59,960 kbps     123,375 kbps    02:28:09.338    87,114 kbps     02:28:08.880    82,371 kbps     02:28:01.080    0 bytes         1,966,063 bytes 02:28:09.380    
    16              2:30:14.588     0:06:35.937     71,170 kbps     113,541 kbps    02:30:51.250    87,549 kbps     02:30:51.500    86,482 kbps     02:36:36.261    0 bytes         1,943,837 bytes 02:36:01.101    
    17              2:36:50.526     0:07:41.752     15,874 kbps     53,450 kbps     02:44:27.315    44,613 kbps     02:44:25.480    35,922 kbps     02:43:11.031    0 bytes         819,269 bytes   02:44:27.440
    No sé por qué motivo la mayor parte de pistas de audio y subtítulos aparecen como ocultas. En la práctica todas esas pistas están disponibles. Normalmente las pistas de audio y subtítulos ocultas son las de japonés.
    Última edición por Conrado77; 31/12/2019 a las 04:17
    Casiusco, Jackaluichi y jackalu han agradecido esto.

  12. #212
    habitual Avatar de jackalu
    Fecha de ingreso
    12 ago, 17
    Mensajes
    93
    Agradecido
    63 veces

    Predeterminado Re: Batman Begins (Cristopher Nolan, 2005) y secuelas

    Acabo de ver mi primera experiencia Nolan en uhd; la elegida: TDK. Hacía años que no la veía, luce bestialmente, he de reconocer que yo no pasé del dvd al br, directamente he dado el salto al 4k, así que la diferencia que noto es acojonante.

    Las secuencias en imax, deduzco las de exteriores, son espectaculares no, lo siguiente.

    La película sigue siendo la que es, una obra de arte; aunque creo que preferiría ver las escenas de acción, sobre todo las cuerpo a cuerpo con algún tipo de secuencia más centrada en los detalles, más lenta, o no tan rápìda, ya que se pierde el detalle que a mi gusto debería de tener. Desconozco si haber visto hace poco de nuevo mad max fury road, tiene algo que ver, ya que las escenas de acción de Miller son muy superiores en este caso.

    En fin señores, hoy toca disfrutar de los extras, que creo deben ser los mismos que las ediciones especiales de los dvd y br.

    SAludos. Larga vida a Batman-Bale.
    sunshine, meindifiere y starwanderer han agradecido esto.

  13. #213
    experto Avatar de willyR
    Fecha de ingreso
    23 nov, 12
    Mensajes
    485
    Agradecido
    462 veces

    Predeterminado Re: Batman Begins (Cristopher Nolan, 2005) y secuelas

    Buenas compañeros, soy bastante fanático de esta trilogía de Nolan...ahora estoy dando el paso al 4K...y me las quería comprar en este formato...la mejor opción que veo ahora es las 3 por 50€ en Amazon...hay alguna otra opción más económica? Merece la pena el cambio del BD que ya tengo a las UHD?
    Gracias!

  14. #214
    Baneado
    Fecha de ingreso
    18 ene, 19
    Mensajes
    1,347
    Agradecido
    835 veces

    Predeterminado Re: Batman Begins (Cristopher Nolan, 2005) y secuelas

    Si. La mejoría se nota.
    Aunque la de begins para mi es la más floja.
    En el pack de HARRY POTTER las diferencias son bastante amplias a favor del 4k.
    willyR ha agradecido esto.

  15. #215
    Anonimo17052021
    Invitado

    Predeterminado Re: Batman Begins (Cristopher Nolan, 2005) y secuelas

    Cita Iniciado por Venom Ver mensaje
    En el pack de HARRY POTTER las diferencias son bastante amplias a favor del 4k.
    Hay un pack con las Batman de Nolan y las de Harry Potter?? Y son distintos discos a los de las ediciones estándar??

  16. #216
    experto Avatar de willyR
    Fecha de ingreso
    23 nov, 12
    Mensajes
    485
    Agradecido
    462 veces

    Predeterminado Re: Batman Begins (Cristopher Nolan, 2005) y secuelas

    Gracias por las respuestas...sabéis si algún pack extranjero tiene audio castellano???

  17. #217
    Anda, alégrame el día. Avatar de varo
    Fecha de ingreso
    18 nov, 17
    Mensajes
    11,869
    Agradecido
    12115 veces

    Predeterminado Re: Batman Begins (Cristopher Nolan, 2005) y secuelas

    Cita Iniciado por willyR Ver mensaje
    Gracias por las respuestas...sabéis si algún pack extranjero tiene audio castellano???
    mira las pelis en el hilo de peliculas extranjeras y si tiene audio castellano las pelis el pack sera igual...creo que el de uk tenia, pero miralo y revisalo
    willyR ha agradecido esto.
    " Quod in hac vita facimus, vocem aeternitate habet"

  18. #218
    Baneado
    Fecha de ingreso
    28 mar, 17
    Ubicación
    Málaga
    Mensajes
    694
    Agradecido
    677 veces

    Predeterminado Re: Batman Begins (Cristopher Nolan, 2005) y secuelas

    UK e Italia segurísimo tienen Castellano en UHD y BD.
    Francia ya no recuerdo.
    willyR ha agradecido esto.

  19. #219
    Vigilante Avatar de Branagh/Doyle
    Fecha de ingreso
    22 jun, 14
    Ubicación
    Agincourt
    Mensajes
    16,872
    Agradecido
    40506 veces

    Predeterminado Re: Batman Begins (Cristopher Nolan, 2005) y secuelas

    Traslado de hilo.
    Última edición por Branagh/Doyle; 20/08/2020 a las 20:44
    Los teatros de ópera están llenos de tipejos subvencionados (se hacen llamar directores de escena), que se dedican a poner sus zarpas ideológicas sobre las obras de arte de otros, destrozándolas, desvirtuándolas.


    BASTA YA.

  20. #220
    Anda, alégrame el día. Avatar de varo
    Fecha de ingreso
    18 nov, 17
    Mensajes
    11,869
    Agradecido
    12115 veces

    Predeterminado Re: Batman Begins (Cristopher Nolan, 2005) y secuelas

    " Quod in hac vita facimus, vocem aeternitate habet"

  21. #221
    El Caos Reptante Avatar de Nyarla_thotep
    Fecha de ingreso
    11 oct, 14
    Ubicación
    R'lyeh
    Mensajes
    2,092
    Agradecido
    2842 veces

    Predeterminado Re: Batman Begins (Cristopher Nolan, 2005) y secuelas

    Buenas, compis.

    Una duda:

    En la web de ECI aparecen dos ediciones de cada peli. Una sin copia digital y otra que sí la incluye. Los precios varían de 25 a 20€ de una a otra. Y también en la más cara aparece la pegatina de HDR y en la barata no.

    ¿Sabéis si la variación de precio es solo por la copia digital o hay algo más? Quiero decir. El disco UHD es el mismo en ambas ediciones con distinto precio. ¿No?

    Muchas gracias de antemano!

    Ph'nglui mglw'nafh Cthulhu R'lyeh wgah'nagl fhtagn.

    Fortuna y Gloria

    Policía de mundodvd silenciada


  22. #222
    Anda, alégrame el día. Avatar de varo
    Fecha de ingreso
    18 nov, 17
    Mensajes
    11,869
    Agradecido
    12115 veces

    Predeterminado Re: Batman Begins (Cristopher Nolan, 2005) y secuelas

    Cita Iniciado por Nyarla_thotep Ver mensaje
    Buenas, compis.

    Una duda:

    En la web de ECI aparecen dos ediciones de cada peli. Una sin copia digital y otra que sí la incluye. Los precios varían de 25 a 20€ de una a otra. Y también en la más cara aparece la pegatina de HDR y en la barata no.

    ¿Sabéis si la variación de precio es solo por la copia digital o hay algo más? Quiero decir. El disco UHD es el mismo en ambas ediciones con distinto precio. ¿No?

    Muchas gracias de antemano!
    si pones los enlaces igual te podemos ayudar
    Nyarla_thotep ha agradecido esto.
    " Quod in hac vita facimus, vocem aeternitate habet"

  23. #223
    gurú Avatar de Lobram
    Fecha de ingreso
    19 mar, 09
    Ubicación
    Bizkaia
    Mensajes
    7,351
    Agradecido
    8925 veces

    Predeterminado Re: Batman Begins (Cristopher Nolan, 2005) y secuelas

    Cita Iniciado por Nyarla_thotep Ver mensaje
    Buenas, compis.

    Una duda:

    En la web de ECI aparecen dos ediciones de cada peli. Una sin copia digital y otra que sí la incluye. Los precios varían de 25 a 20€ de una a otra. Y también en la más cara aparece la pegatina de HDR y en la barata no.

    ¿Sabéis si la variación de precio es solo por la copia digital o hay algo más? Quiero decir. El disco UHD es el mismo en ambas ediciones con distinto precio. ¿No?

    Muchas gracias de antemano!
    Yo he visto una de esas pero de El Caballero Oscuro. Aparte de las diferencias que indicas, en la edición nueva (sin lo de HDR y sin copia digital) el papel de la carátula es más fino, de peor calidad y tiene el tamaño del lomo para una caja más estrecha pero sigue viniendo en una caja ancha así que no queda muy bien. Al menos así es la que he visto yo.
    Última edición por Lobram; 28/10/2020 a las 12:55
    Nyarla_thotep ha agradecido esto.
    TV LG OLED 55E6V HDR Premium
    Reproductor OPPO UDP-203
    Receptor SONY STR-DN1010
    Subwoofer BK XLS200 MKII 275W
    Altavoces 5.1 POLK AUDIO RTi A1, CSi A4 y OWM 3

  24. #224
    El Caos Reptante Avatar de Nyarla_thotep
    Fecha de ingreso
    11 oct, 14
    Ubicación
    R'lyeh
    Mensajes
    2,092
    Agradecido
    2842 veces

    Predeterminado Re: Batman Begins (Cristopher Nolan, 2005) y secuelas

    Cita Iniciado por varo Ver mensaje
    si pones los enlaces igual te podemos ayudar
    Esta es Batman Begins a 25€

    https://www.elcorteingles.es/cine/A2...a-hd--blu-ray/

    Y esta a 20€

    https://www.elcorteingles.es/cine/A3...k-uhd-blu-ray/

    A mí la carátula etc me da lo mismo. Me interesa saber si el disco UHD es el mismo en ambas ediciones (lo digo por la pegatina HDR) porque entonces me tiro a por la barata.

    Ph'nglui mglw'nafh Cthulhu R'lyeh wgah'nagl fhtagn.

    Fortuna y Gloria

    Policía de mundodvd silenciada


  25. #225
    gurú Avatar de Lobram
    Fecha de ingreso
    19 mar, 09
    Ubicación
    Bizkaia
    Mensajes
    7,351
    Agradecido
    8925 veces

    Predeterminado Re: Batman Begins (Cristopher Nolan, 2005) y secuelas

    Los discos son iguales.
    Mimbrera y Nyarla_thotep han agradecido esto.
    TV LG OLED 55E6V HDR Premium
    Reproductor OPPO UDP-203
    Receptor SONY STR-DN1010
    Subwoofer BK XLS200 MKII 275W
    Altavoces 5.1 POLK AUDIO RTi A1, CSi A4 y OWM 3

+ Responder tema
Página 9 de 10 PrimerPrimer ... 78910 ÚltimoÚltimo

Etiquetas para este tema

Permisos de publicación

  • No puedes crear nuevos temas
  • No puedes responder temas
  • No puedes subir archivos adjuntos
  • No puedes editar tus mensajes
  •  
Powered by vBulletin® Version 4.2.1
Copyright © 2022 vBulletin Solutions, Inc. All rights reserved.
SEO by vBSEO
Image resizer by SevenSkins