Regístrate gratis¡Bienvenido a mundodvd! Regístrate ahora y accede a todos los contenidos de la web. El registro es totalmente gratuito y obtendrás muchas ventajas.
Blu-ray, DVD y cine en casa
Regístrate gratis!
Registro en mundodvd
+ Responder tema
Resultados 1 al 7 de 7

Tema: Manhattan sin salida (21 Bridges, 2019, Brian Kirk)

  1. #1
    Anonimo16032020
    Invitado

    Predeterminado Manhattan sin salida (21 Bridges, 2019, Brian Kirk)

    Hola,

    De la mano de Cameo tendremos este título de Diamond Films, en España para el 17 de junio según nos indican en mubis.



    Khystros ha agradecido esto.

  2. #2
    experto Avatar de Khystros
    Fecha de ingreso
    19 ago, 18
    Mensajes
    322
    Agradecido
    250 veces

    Predeterminado Re: Manhattan sin salida (21 Bridges, 2019, Brian Kirk)

    Yo ya la he pillado

  3. #3
    sabio Avatar de Conrado77
    Fecha de ingreso
    19 dic, 15
    Ubicación
    Barcelona
    Mensajes
    2,890
    Agradecido
    14068 veces

    Predeterminado Re: Manhattan sin salida (21 Bridges, 2019, Brian Kirk)

    BDInfo de la edición de USA:

    Código:
    DISC INFO:
    
    Disc Title:     21 Bridges
    Disc Label:     21_BRIDGES_UPB75
    Disc Size:      30,669,811,327 bytes
    Protection:     AACS
    Extras:         BD-Java
    BDInfo:         0.7.5.5
    
    PLAYLIST REPORT:
    
    Name:                   00800.MPLS
    Length:                 1:39:56.991 (h:m:s.ms)
    Size:                   28,234,199,040 bytes
    Total Bitrate:          37.66 Mbps
    
    VIDEO:
    
    Codec                   Bitrate             Description     
    -----                   -------             -----------     
    MPEG-4 AVC Video        31689 kbps          1080p / 23.976 fps / 16:9 / High Profile 4.1
    
    AUDIO:
    
    Codec                           Language        Bitrate         Description     
    -----                           --------        -------         -----------     
    DTS-HD Master Audio             English         3580 kbps       5.1 / 48 kHz /  3580 kbps / 24-bit (DTS Core: 5.1 / 48 kHz /  1509 kbps / 24-bit)
    Dolby Digital Audio             English         192 kbps        2.0 / 48 kHz /   192 kbps / DN -31dB / Dolby Surround
    Dolby Digital Audio             English         192 kbps        2.0 / 48 kHz /   192 kbps / DN -27dB / Dolby Surround
    
    SUBTITLES:
    
    Codec                           Language        Bitrate         Description     
    -----                           --------        -------         -----------     
    Presentation Graphics           English         35.448 kbps                     
    Presentation Graphics           Spanish         26.906 kbps                     
    
    FILES:
    
    Name            Time In         Length          Size            Total Bitrate   
    ----            -------         ------          ----            -------------   
    00800.M2TS      0:00:00.000     1:39:56.991     28,234,199,040  37,664          
    
    CHAPTERS:
    
    Number          Time In         Length          Avg Video Rate  Max 1-Sec Rate  Max 1-Sec Time  Max 5-Sec Rate  Max 5-Sec Time  Max 10Sec Rate  Max 10Sec Time  Avg Frame Size  Max Frame Size  Max Frame Time  
    ------          -------         ------          --------------  --------------  --------------  --------------  --------------  --------------  --------------  --------------  --------------  --------------  
    1               0:00:00.000     0:03:16.196     32,701 kbps     39,005 kbps     00:00:44.919    35,647 kbps     00:00:40.790    35,121 kbps     00:00:26.818    170,451 bytes   372,155 bytes   00:00:45.462    
    2               0:03:16.196     0:04:32.313     34,556 kbps     36,580 kbps     00:07:32.201    35,162 kbps     00:07:32.952    34,959 kbps     00:07:26.112    180,160 bytes   459,461 bytes   00:07:48.509    
    3               0:07:48.509     0:04:10.833     30,632 kbps     36,357 kbps     00:11:28.354    35,211 kbps     00:11:24.308    34,830 kbps     00:11:19.220    159,703 bytes   329,300 bytes   00:07:52.388    
    4               0:11:59.343     0:04:55.378     31,569 kbps     37,875 kbps     00:16:17.601    35,032 kbps     00:16:45.004    34,935 kbps     00:16:40.874    164,585 bytes   384,560 bytes   00:16:48.632    
    5               0:16:54.722     0:05:38.421     31,619 kbps     36,559 kbps     00:17:30.049    35,145 kbps     00:17:26.044    34,939 kbps     00:17:21.040    164,848 bytes   361,523 bytes   00:16:57.641    
    6               0:22:33.143     0:08:21.417     31,809 kbps     38,265 kbps     00:30:28.034    35,115 kbps     00:30:24.030    34,866 kbps     00:26:20.078    165,836 bytes   374,844 bytes   00:30:32.831    
    7               0:30:54.561     0:03:55.485     33,146 kbps     36,301 kbps     00:31:18.001    35,025 kbps     00:31:33.933    34,891 kbps     00:31:29.012    172,808 bytes   337,179 bytes   00:30:58.565    
    8               0:34:50.046     0:05:26.367     31,856 kbps     36,787 kbps     00:35:03.518    35,023 kbps     00:38:53.581    34,856 kbps     00:39:54.350    166,083 bytes   332,934 bytes   00:39:57.269    
    9               0:40:16.413     0:04:23.304     31,543 kbps     38,379 kbps     00:44:15.486    35,150 kbps     00:44:13.651    34,804 kbps     00:40:52.199    164,449 bytes   375,707 bytes   00:44:31.335    
    10              0:44:39.718     0:06:14.999     31,178 kbps     39,255 kbps     00:49:46.608    35,283 kbps     00:49:45.565    34,882 kbps     00:49:51.738    162,549 bytes   359,892 bytes   00:49:14.368    
    11              0:50:54.718     0:03:09.689     31,228 kbps     36,223 kbps     00:51:07.022    34,869 kbps     00:51:21.369    34,763 kbps     00:52:48.290    162,808 bytes   307,564 bytes   00:51:22.078    
    12              0:54:04.407     0:04:47.912     33,922 kbps     36,033 kbps     00:58:42.810    35,026 kbps     00:54:59.754    34,887 kbps     00:56:50.740    176,854 bytes   338,168 bytes   00:55:09.639    
    13              0:58:52.320     0:03:16.279     31,146 kbps     35,956 kbps     01:00:08.479    34,949 kbps     00:59:45.081    34,818 kbps     00:59:40.076    162,379 bytes   328,915 bytes   01:00:09.355    
    14              1:02:08.599     0:04:11.000     30,520 kbps     35,962 kbps     01:05:56.744    34,972 kbps     01:04:30.700    34,791 kbps     01:04:59.896    159,116 bytes   350,456 bytes   01:06:19.600    
    15              1:06:19.600     0:04:07.956     32,939 kbps     38,571 kbps     01:07:14.572    35,263 kbps     01:07:10.651    34,834 kbps     01:06:36.742    171,730 bytes   356,994 bytes   01:06:25.523    
    16              1:10:27.556     0:05:52.060     32,713 kbps     38,035 kbps     01:14:07.734    35,032 kbps     01:15:42.704    34,853 kbps     01:10:54.458    170,551 bytes   300,844 bytes   01:10:31.435    
    17              1:16:19.616     0:03:00.138     32,639 kbps     36,371 kbps     01:19:18.253    35,158 kbps     01:19:14.124    34,932 kbps     01:19:09.119    170,163 bytes   426,800 bytes   01:19:19.004    
    18              1:19:19.755     0:05:55.355     31,635 kbps     35,571 kbps     01:20:12.849    34,903 kbps     01:21:51.781    34,591 kbps     01:20:13.558    164,931 bytes   305,268 bytes   01:20:11.014    
    19              1:25:15.110     0:07:19.272     32,143 kbps     37,001 kbps     01:25:23.034    34,986 kbps     01:31:47.627    34,909 kbps     01:31:31.569    167,580 bytes   363,528 bytes   01:31:01.831    
    20              1:32:34.382     0:07:22.608     27,029 kbps     39,975 kbps     01:39:46.480    29,854 kbps     01:39:42.309    28,426 kbps     01:35:00.027    140,929 bytes   415,388 bytes   01:35:29.557

  4. #4
    sabio Avatar de Conrado77
    Fecha de ingreso
    19 dic, 15
    Ubicación
    Barcelona
    Mensajes
    2,890
    Agradecido
    14068 veces

    Predeterminado Re: Manhattan sin salida (21 Bridges, 2019, Brian Kirk)

    Estamos a 8 días de la supuesta salida a la venta y en la web de Cameo aún no hay ni rastro de ninguna edición de esta película. Amazon mantiene la preventa y el plazo. Y ECI también. De hecho, en ECI ya han puesto una foto de la edición en BD. Llevará un armaray negro.



    El precio de salida es muy contenido (14,99€) teniendo en cuenta que la película es nueva (y que la edición es legal, por supuesto).
    Última edición por Conrado77; 09/06/2020 a las 00:32

  5. #5
    Anonimo04052022
    Invitado

    Predeterminado Re: Manhattan sin salida (21 Bridges, 2019, Brian Kirk)

    Pedida a fnac con el 2x1. Tengo la usa con subs pero a este precio es un crimen no pillarla.

  6. #6
    sabio Avatar de Conrado77
    Fecha de ingreso
    19 dic, 15
    Ubicación
    Barcelona
    Mensajes
    2,890
    Agradecido
    14068 veces

    Predeterminado Re: Manhattan sin salida (21 Bridges, 2019, Brian Kirk)

    Cita Iniciado por hulk_31 Ver mensaje
    Pedida a fnac con el 2x1. Tengo la usa con subs pero a este precio es un crimen no pillarla.
    Yo tamién tengo la de USA. Y el UHD alemán. Fíjate en los BDInfo de abajo. Las ediciones de USA y Alemania son muy superior a la de España-Cameo.

    BDInfo de la edición española de Cameo:

    Código:
    DISC INFO:
    
    Disc Label:     MANHATTAN SIN SALIDA
    Disc Size:      21,645,594,064 bytes
    Protection:     AACS
    BDInfo:         0.7.5.5
    
    PLAYLIST REPORT:
    
    Name:                   00001.MPLS
    Length:                 1:39:34.708 (h:m:s.ms)
    Size:                   19,596,570,624 bytes
    Total Bitrate:          26.24 Mbps
    
    VIDEO:
    
    Codec                   Bitrate             Description     
    -----                   -------             -----------     
    MPEG-4 AVC Video        20623 kbps          1080p / 24 fps / 16:9 / High Profile 4.1
    
    AUDIO:
    
    Codec                           Language        Bitrate         Description     
    -----                           --------        -------         -----------     
    DTS-HD Master Audio             English         1997 kbps       5.1 / 48 kHz /  1997 kbps / 16-bit (DTS Core: 5.1 / 48 kHz /  1509 kbps / 16-bit)
    DTS-HD Master Audio             Spanish         1965 kbps       5.1 / 48 kHz /  1965 kbps / 16-bit (DTS Core: 5.1 / 48 kHz /  1509 kbps / 16-bit)
    
    SUBTITLES:
    
    Codec                           Language        Bitrate         Description     
    -----                           --------        -------         -----------     
    Presentation Graphics           Spanish         31.335 kbps                     
    Presentation Graphics           Spanish         0.110 kbps                      
    
    FILES:
    
    Name            Time In         Length          Size            Total Bitrate   
    ----            -------         ------          ----            -------------   
    00001.M2TS      0:00:00.000     1:39:25.708     19,557,353,472  26,226          
    00008.M2TS      1:39:25.708     0:00:09.000     39,217,152      34,860          
    
    CHAPTERS:
    
    Number          Time In         Length          Avg Video Rate  Max 1-Sec Rate  Max 1-Sec Time  Max 5-Sec Rate  Max 5-Sec Time  Max 10Sec Rate  Max 10Sec Time  Avg Frame Size  Max Frame Size  Max Frame Time  
    ------          -------         ------          --------------  --------------  --------------  --------------  --------------  --------------  --------------  --------------  --------------  --------------  
    1               0:00:00.000     0:11:33.833     22,023 kbps     30,104 kbps     00:01:06.708    27,447 kbps     00:01:03.833    27,270 kbps     00:00:58.708    114,694 bytes   511,481 bytes   00:07:24.208    
    2               0:11:33.833     0:12:20.875     21,990 kbps     29,426 kbps     00:15:40.291    25,816 kbps     00:15:36.833    24,044 kbps     00:12:05.791    114,530 bytes   382,507 bytes   00:16:31.541    
    3               0:23:54.708     0:10:41.458     22,004 kbps     28,491 kbps     00:32:14.083    25,145 kbps     00:30:36.916    23,788 kbps     00:30:35.666    114,602 bytes   404,620 bytes   00:30:06.750    
    4               0:34:36.166     0:11:29.416     21,992 kbps     29,489 kbps     00:43:20.500    26,286 kbps     00:44:35.625    24,567 kbps     00:44:35.666    114,539 bytes   403,906 bytes   00:44:35.708    
    5               0:46:05.583     0:12:18.541     22,006 kbps     29,421 kbps     00:50:48.666    24,823 kbps     00:50:44.666    23,624 kbps     00:50:39.541    114,613 bytes   347,929 bytes   00:48:46.000    
    6               0:58:24.125     0:11:20.541     21,994 kbps     29,531 kbps     01:07:09.250    24,575 kbps     01:08:00.041    23,203 kbps     01:08:00.708    114,554 bytes   348,873 bytes   01:06:27.750    
    7               1:09:44.666     0:15:04.750     22,001 kbps     28,563 kbps     01:19:22.125    24,788 kbps     01:19:21.208    23,460 kbps     01:19:21.166    114,589 bytes   307,492 bytes   01:19:23.166    
    8               1:24:49.416     0:14:45.291     12,698 kbps     32,000 kbps     01:39:33.624    32,000 kbps     01:39:29.666    28,688 kbps     01:39:24.624    66,137 bytes    288,014 bytes   01:30:31.416
    BDInfo de la edición USA de Universal:

    Código:
    DISC INFO:
    
    Disc Title:     21 Bridges
    Disc Label:     21_BRIDGES_UPB75
    Disc Size:      30,669,811,327 bytes
    Protection:     AACS
    Extras:         BD-Java
    BDInfo:         0.7.5.5
    
    PLAYLIST REPORT:
    
    Name:                   00800.MPLS
    Length:                 1:39:56.991 (h:m:s.ms)
    Size:                   28,234,199,040 bytes
    Total Bitrate:          37.66 Mbps
    
    VIDEO:
    
    Codec                   Bitrate             Description     
    -----                   -------             -----------     
    MPEG-4 AVC Video        31689 kbps          1080p / 23.976 fps / 16:9 / High Profile 4.1
    
    AUDIO:
    
    Codec                           Language        Bitrate         Description     
    -----                           --------        -------         -----------     
    DTS-HD Master Audio             English         3580 kbps       5.1 / 48 kHz /  3580 kbps / 24-bit (DTS Core: 5.1 / 48 kHz /  1509 kbps / 24-bit)
    Dolby Digital Audio             English         192 kbps        2.0 / 48 kHz /   192 kbps / DN -31dB / Dolby Surround
    Dolby Digital Audio             English         192 kbps        2.0 / 48 kHz /   192 kbps / DN -27dB / Dolby Surround
    
    SUBTITLES:
    
    Codec                           Language        Bitrate         Description     
    -----                           --------        -------         -----------     
    Presentation Graphics           English         35.448 kbps                     
    Presentation Graphics           Spanish         26.906 kbps                     
    
    FILES:
    
    Name            Time In         Length          Size            Total Bitrate   
    ----            -------         ------          ----            -------------   
    00800.M2TS      0:00:00.000     1:39:56.991     28,234,199,040  37,664          
    
    CHAPTERS:
    
    Number          Time In         Length          Avg Video Rate  Max 1-Sec Rate  Max 1-Sec Time  Max 5-Sec Rate  Max 5-Sec Time  Max 10Sec Rate  Max 10Sec Time  Avg Frame Size  Max Frame Size  Max Frame Time  
    ------          -------         ------          --------------  --------------  --------------  --------------  --------------  --------------  --------------  --------------  --------------  --------------  
    1               0:00:00.000     0:03:16.196     32,701 kbps     39,005 kbps     00:00:44.919    35,647 kbps     00:00:40.790    35,121 kbps     00:00:26.818    170,451 bytes   372,155 bytes   00:00:45.462    
    2               0:03:16.196     0:04:32.313     34,556 kbps     36,580 kbps     00:07:32.201    35,162 kbps     00:07:32.952    34,959 kbps     00:07:26.112    180,160 bytes   459,461 bytes   00:07:48.509    
    3               0:07:48.509     0:04:10.833     30,632 kbps     36,357 kbps     00:11:28.354    35,211 kbps     00:11:24.308    34,830 kbps     00:11:19.220    159,703 bytes   329,300 bytes   00:07:52.388    
    4               0:11:59.343     0:04:55.378     31,569 kbps     37,875 kbps     00:16:17.601    35,032 kbps     00:16:45.004    34,935 kbps     00:16:40.874    164,585 bytes   384,560 bytes   00:16:48.632    
    5               0:16:54.722     0:05:38.421     31,619 kbps     36,559 kbps     00:17:30.049    35,145 kbps     00:17:26.044    34,939 kbps     00:17:21.040    164,848 bytes   361,523 bytes   00:16:57.641    
    6               0:22:33.143     0:08:21.417     31,809 kbps     38,265 kbps     00:30:28.034    35,115 kbps     00:30:24.030    34,866 kbps     00:26:20.078    165,836 bytes   374,844 bytes   00:30:32.831    
    7               0:30:54.561     0:03:55.485     33,146 kbps     36,301 kbps     00:31:18.001    35,025 kbps     00:31:33.933    34,891 kbps     00:31:29.012    172,808 bytes   337,179 bytes   00:30:58.565    
    8               0:34:50.046     0:05:26.367     31,856 kbps     36,787 kbps     00:35:03.518    35,023 kbps     00:38:53.581    34,856 kbps     00:39:54.350    166,083 bytes   332,934 bytes   00:39:57.269    
    9               0:40:16.413     0:04:23.304     31,543 kbps     38,379 kbps     00:44:15.486    35,150 kbps     00:44:13.651    34,804 kbps     00:40:52.199    164,449 bytes   375,707 bytes   00:44:31.335    
    10              0:44:39.718     0:06:14.999     31,178 kbps     39,255 kbps     00:49:46.608    35,283 kbps     00:49:45.565    34,882 kbps     00:49:51.738    162,549 bytes   359,892 bytes   00:49:14.368    
    11              0:50:54.718     0:03:09.689     31,228 kbps     36,223 kbps     00:51:07.022    34,869 kbps     00:51:21.369    34,763 kbps     00:52:48.290    162,808 bytes   307,564 bytes   00:51:22.078    
    12              0:54:04.407     0:04:47.912     33,922 kbps     36,033 kbps     00:58:42.810    35,026 kbps     00:54:59.754    34,887 kbps     00:56:50.740    176,854 bytes   338,168 bytes   00:55:09.639    
    13              0:58:52.320     0:03:16.279     31,146 kbps     35,956 kbps     01:00:08.479    34,949 kbps     00:59:45.081    34,818 kbps     00:59:40.076    162,379 bytes   328,915 bytes   01:00:09.355    
    14              1:02:08.599     0:04:11.000     30,520 kbps     35,962 kbps     01:05:56.744    34,972 kbps     01:04:30.700    34,791 kbps     01:04:59.896    159,116 bytes   350,456 bytes   01:06:19.600    
    15              1:06:19.600     0:04:07.956     32,939 kbps     38,571 kbps     01:07:14.572    35,263 kbps     01:07:10.651    34,834 kbps     01:06:36.742    171,730 bytes   356,994 bytes   01:06:25.523    
    16              1:10:27.556     0:05:52.060     32,713 kbps     38,035 kbps     01:14:07.734    35,032 kbps     01:15:42.704    34,853 kbps     01:10:54.458    170,551 bytes   300,844 bytes   01:10:31.435    
    17              1:16:19.616     0:03:00.138     32,639 kbps     36,371 kbps     01:19:18.253    35,158 kbps     01:19:14.124    34,932 kbps     01:19:09.119    170,163 bytes   426,800 bytes   01:19:19.004    
    18              1:19:19.755     0:05:55.355     31,635 kbps     35,571 kbps     01:20:12.849    34,903 kbps     01:21:51.781    34,591 kbps     01:20:13.558    164,931 bytes   305,268 bytes   01:20:11.014    
    19              1:25:15.110     0:07:19.272     32,143 kbps     37,001 kbps     01:25:23.034    34,986 kbps     01:31:47.627    34,909 kbps     01:31:31.569    167,580 bytes   363,528 bytes   01:31:01.831    
    20              1:32:34.382     0:07:22.608     27,029 kbps     39,975 kbps     01:39:46.480    29,854 kbps     01:39:42.309    28,426 kbps     01:35:00.027    140,929 bytes   415,388 bytes   01:35:29.557
    Y como también tengo la edición UHD alemana, pongo el BDInfo del disco BD alemán:

    Código:
    DISC INFO:
    
    Disc Title:     21 Bridges
    Disc Label:     21_BRIDGES
    Disc Size:      38,379,135,143 bytes
    Protection:     AACS
    Extras:         50Hz Content
    BDInfo:         0.7.5.5
    
    PLAYLIST REPORT:
    
    Name:                   00021.MPLS
    Length:                 1:40:27.541 (h:m:s.ms)
    Size:                   32,590,952,448 bytes
    Total Bitrate:          43.26 Mbps
    
    VIDEO:
    
    Codec                   Bitrate             Description     
    -----                   -------             -----------     
    MPEG-4 AVC Video        32997 kbps          1080p / 24 fps / 16:9 / High Profile 4.1
    
    AUDIO:
    
    Codec                           Language        Bitrate         Description     
    -----                           --------        -------         -----------     
    DTS-HD Master Audio             German          3728 kbps       5.1 / 48 kHz /  3728 kbps / 24-bit (DTS Core: 5.1 / 48 kHz /  1509 kbps / 24-bit / DN -4dB)
    DTS-HD Master Audio             English         3763 kbps       5.1 / 48 kHz /  3763 kbps / 24-bit (DTS Core: 5.1 / 48 kHz /  1509 kbps / 24-bit / DN -8dB)
    DTS Audio                       English         320 kbps        2.0 / 48 kHz /   320 kbps / 24-bit / DN -4dB
    
    SUBTITLES:
    
    Codec                           Language        Bitrate         Description     
    -----                           --------        -------         -----------     
    Presentation Graphics           German          22.712 kbps                     
    Presentation Graphics           German          0.125 kbps                      
    
    FILES:
    
    Name            Time In         Length          Size            Total Bitrate   
    ----            -------         ------          ----            -------------   
    00021.M2TS      0:00:00.000     1:40:27.541     32,590,952,448  43,256          
    
    CHAPTERS:
    
    Number          Time In         Length          Avg Video Rate  Max 1-Sec Rate  Max 1-Sec Time  Max 5-Sec Rate  Max 5-Sec Time  Max 10Sec Rate  Max 10Sec Time  Avg Frame Size  Max Frame Size  Max Frame Time  
    ------          -------         ------          --------------  --------------  --------------  --------------  --------------  --------------  --------------  --------------  --------------  --------------  
    1               0:00:00.000     0:09:16.458     33,040 kbps     37,698 kbps     00:07:33.166    36,169 kbps     00:07:32.041    35,947 kbps     00:07:27.000    172,068 bytes   433,174 bytes   00:07:34.208    
    2               0:09:16.458     0:13:14.874     34,036 kbps     38,647 kbps     00:16:16.083    36,219 kbps     00:21:01.458    35,939 kbps     00:11:18.083    177,273 bytes   381,118 bytes   00:16:48.166    
    3               0:22:31.333     0:08:30.458     34,816 kbps     39,556 kbps     00:30:25.750    36,459 kbps     00:30:21.750    36,103 kbps     00:30:16.750    181,335 bytes   376,106 bytes   00:30:29.541    
    4               0:31:01.791     0:09:46.541     35,367 kbps     39,919 kbps     00:35:00.958    36,482 kbps     00:34:56.958    36,111 kbps     00:34:51.958    184,205 bytes   330,996 bytes   00:39:51.541    
    5               0:40:48.333     0:10:02.875     34,428 kbps     40,243 kbps     00:49:43.166    36,735 kbps     00:44:10.458    36,240 kbps     00:49:48.291    179,313 bytes   352,677 bytes   00:49:10.958    
    6               0:50:51.208     0:11:13.208     35,297 kbps     38,907 kbps     00:58:38.958    36,307 kbps     00:58:35.125    35,973 kbps     00:58:30.041    183,836 bytes   335,935 bytes   00:55:00.875    
    7               1:02:04.416     0:08:37.000     35,429 kbps     39,638 kbps     01:08:20.291    36,434 kbps     01:08:16.333    36,010 kbps     01:08:11.291    184,527 bytes   336,811 bytes   01:06:15.166    
    8               1:10:41.416     0:08:33.125     35,687 kbps     39,108 kbps     01:11:56.583    36,373 kbps     01:11:27.916    36,042 kbps     01:11:22.791    185,868 bytes   415,755 bytes   01:19:13.791    
    9               1:19:14.541     0:13:14.875     35,243 kbps     38,045 kbps     01:25:17.375    36,163 kbps     01:25:13.416    35,977 kbps     01:25:08.375    183,558 bytes   342,046 bytes   01:30:55.916    
    10              1:32:29.416     0:07:58.125     12,078 kbps     27,635 kbps     01:39:40.041    16,023 kbps     01:35:19.375    14,663 kbps     01:35:15.375    62,911 bytes    274,086 bytes   01:40:13.416

    Las de USA y Alemania vienen en BD-50, mientras que la de España-Cameo lo hace en BD-25. Y hay una diferencia importante entre aquéllas y la de Cameo por lo que respecta al bitrate de la pista de vídeo: 20,6 Mbps para España vs 31,6 Mbps para USA y 33 MBps para Alemania.

    La edición de USA está codificada a 23,976 FPS. Las de España y Alemania a 24 FPS.

    En esta ocasión Cameo no se ha estirado mucho. Pero en general sus ediciones suelen ser buenas o incluso muy buenas.
    Última edición por Conrado77; 25/06/2020 a las 07:39 Razón: Ortografía
    sunshine, Trek y Lobram han agradecido esto.

  7. #7
    ATHLETIC !!!!!!! Avatar de Necrophobic
    Fecha de ingreso
    20 nov, 07
    Mensajes
    5,009
    Agradecido
    6840 veces

    Predeterminado Re: Manhattan sin salida (21 Bridges, 2019, Brian Kirk)

    Ya la vi, y se ve muy bien, lo que se espera de una edicion en Blu Ray.

    La pelicula lo que esperaba, a mi me ha gustado muchisimo, y el sonido de los disparos apabullante
    sunshine y Lobram han agradecido esto.

+ Responder tema

Etiquetas para este tema

Permisos de publicación

  • No puedes crear nuevos temas
  • No puedes responder temas
  • No puedes subir archivos adjuntos
  • No puedes editar tus mensajes
  •  
Powered by vBulletin® Version 4.2.1
Copyright © 2024 vBulletin Solutions, Inc. All rights reserved.
SEO by vBSEO
Image resizer by SevenSkins