Regístrate gratis¡Bienvenido a mundodvd! Regístrate ahora y accede a todos los contenidos de la web. El registro es totalmente gratuito y obtendrás muchas ventajas.
Blu-ray, DVD y cine en casa
Regístrate gratis!
Registro en mundodvd
+ Responder tema
Página 2 de 5 PrimerPrimer 1234 ... ÚltimoÚltimo
Resultados 26 al 50 de 102

Tema: Pack "Columbia Classics Volume 4"

  1. #26
    El tónico Avatar de sunshine
    Fecha de ingreso
    11 oct, 03
    Ubicación
    Sevilla
    Mensajes
    2,043
    Agradecido
    2847 veces

    Predeterminado Re: Pack "Columbia Classics Volume 4"

    Se sabe algo de idiomas? A poco más de dos semanas del lanzamiento, y yo al menos no encuentro nada.
    Saludos

  2. #27
    sabio Avatar de cesarleeds
    Fecha de ingreso
    26 feb, 15
    Mensajes
    2,395
    Agradecido
    2740 veces

    Predeterminado Re: Pack "Columbia Classics Volume 4"

    Cita Iniciado por sunshine Ver mensaje
    Se sabe algo de idiomas? A poco más de dos semanas del lanzamiento, y yo al menos no encuentro nada.
    Saludos
    En unos días, es de suponer, aparecerán los primeros unboxings, eso será lo mejor que tengamos hasta que alguien confirme disco en mano.
    sunshine ha agradecido esto.

  3. #28
    sabio Avatar de cesarleeds
    Fecha de ingreso
    26 feb, 15
    Mensajes
    2,395
    Agradecido
    2740 veces

    Predeterminado Re: Pack "Columbia Classics Volume 4"

    Ya empiezan a circular las primeras copias.

    No me termina de convencer el verde oscuro, especialmente siendo una colección de temática romántica, como la de este año.

    https://twitter.com/HDMOVIESOURCE/st...59243434143980


    sunshine, george_crow, starwanderer y 3 usuarios han agradecido esto.

  4. #29
    sabio Avatar de cesarleeds
    Fecha de ingreso
    26 feb, 15
    Mensajes
    2,395
    Agradecido
    2740 veces

    Predeterminado Re: Pack "Columbia Classics Volume 4"

    Mi copia, procedente de Importcds, ya tiene número de seguimiento, no debería tardar en salir.
    sunshine y BodySnatcher han agradecido esto.

  5. #30
    sabio Avatar de cesarleeds
    Fecha de ingreso
    26 feb, 15
    Mensajes
    2,395
    Agradecido
    2740 veces

    Predeterminado Re: Pack "Columbia Classics Volume 4"

    Ya se ha filtrado el primer bdinfo de la colección, en este caso el BD de Luna Nueva, dos pistas spanish.

    Mi copia en marcha.

    Durante el fin de semana supongo empezarán los primeros unboxings y reviews.
    Chimera ha agradecido esto.

  6. #31
    sabio Avatar de 180 grados
    Fecha de ingreso
    25 sep, 15
    Mensajes
    2,528
    Agradecido
    4128 veces

    Predeterminado Re: Pack "Columbia Classics Volume 4"

    ¿Solo el BD? ¿Y el UHD?

    ¿Y los audios de Punch-Drunk Love, se sabe algo?

  7. #32
    sabio Avatar de cesarleeds
    Fecha de ingreso
    26 feb, 15
    Mensajes
    2,395
    Agradecido
    2740 veces

    Predeterminado Re: Pack "Columbia Classics Volume 4"

    Ya se conocen también los bd info de los BD de Starman y Sleepless in Seattle, ambos con castellano.

    Mi envío ya tiene seguimiento local de Correos, espero tenerlo a finales de semana.
    sunshine y luillis han agradecido esto.

  8. #33
    maestro
    Fecha de ingreso
    10 jun, 17
    Mensajes
    1,437
    Agradecido
    822 veces

    Predeterminado Re: Pack "Columbia Classics Volume 4"

    Cita Iniciado por cesarleeds Ver mensaje
    Ya se conocen también los bd info de los BD de Starman y Sleepless in Seattle, ambos con castellano.

    Mi envío ya tiene seguimiento local de Correos, espero tenerlo a finales de semana.
    La mia a punto de salir.
    He aprovechado cupon del 15% descuento y me ha salido por 159€ puesta en casa y con el IVA pagado.
    sunshine y chechenoSi han agradecido esto.

  9. #34
    Goonie Avatar de Matt
    Fecha de ingreso
    30 jul, 02
    Mensajes
    1,114
    Agradecido
    603 veces

    Predeterminado Re: Pack "Columbia Classics Volume 4"

    Cita Iniciado por emi50 Ver mensaje
    La mia a punto de salir.
    He aprovechado cupon del 15% descuento y me ha salido por 159€ puesta en casa y con el IVA pagado.
    ¿Podrías decir la tienda donde la compaste?

    Gracias!!

  10. #35
    sabio Avatar de cesarleeds
    Fecha de ingreso
    26 feb, 15
    Mensajes
    2,395
    Agradecido
    2740 veces

    Predeterminado Re: Pack "Columbia Classics Volume 4"

    sunshine, starwanderer, correasremy y 1 usuarios han agradecido esto.

  11. #36
    maestro
    Fecha de ingreso
    10 jun, 17
    Mensajes
    1,437
    Agradecido
    822 veces

    Predeterminado Re: Pack "Columbia Classics Volume 4"

    Cita Iniciado por Matt Ver mensaje
    ¿Podrías decir la tienda donde la compaste?

    Gracias!!
    En https://www.deepdiscount.com/columbi...4/043396633360 El codigo del descuento del 15% es FLEX15 y ahora mismo funciona. Me ha costado exactamente 154,01€ pagando con VISA pero he puesto 159€ porque mi banco me cargará el 3%.
    OJO! Si sobrepasas los 150€ no te incluira el IVA y tendras que gestionarlo tu con Correos.
    Así que si compras este articulo NO INCLUYAS NADA MAS, de hecho, si no pones el codigo de descuento ya los sobrepasas y no te incluira el IVA.
    Envian a los 2 dias y suelen tardar unos 10-15 dias. Van con numero seguimiento y los trae Correos.
    Última edición por emi50; 11/02/2024 a las 21:57
    Matt, BodySnatcher y Chimera han agradecido esto.

  12. #37
    Anda, alégrame el día. Avatar de varo
    Fecha de ingreso
    18 nov, 17
    Mensajes
    13,118
    Agradecido
    13322 veces

    Predeterminado Re: Pack "Columbia Classics Volume 4"

    muy tentador, pero en este caso hay varios titulos que no me interesan nada, muy caro, sobre todo porque estos packs a los meses suelen bajar muchisimo. asi que de momento voy a esperar pacientemente... si hubieran sido otros titulos, pero la verdad el tema romantico no es de los generos que mas me gustan.
    " Quod in hac vita facimus, vocem aeternitate habet"

  13. #38
    freak
    Fecha de ingreso
    06 may, 08
    Mensajes
    773
    Agradecido
    358 veces

    Predeterminado Re: Pack "Columbia Classics Volume 4"

    Está a 137 en WowHD

  14. #39
    sabio Avatar de cesarleeds
    Fecha de ingreso
    26 feb, 15
    Mensajes
    2,395
    Agradecido
    2740 veces

    Predeterminado Re: Pack "Columbia Classics Volume 4"

    Según bdinfo, el bd de Punch Drunk Love tambien lleva castellano.
    180 grados ha agradecido esto.

  15. #40
    sabio Avatar de 180 grados
    Fecha de ingreso
    25 sep, 15
    Mensajes
    2,528
    Agradecido
    4128 veces

    Predeterminado Re: Pack "Columbia Classics Volume 4"

    Pues si Punch Drunk Love tiene castellano, me planteo la compra por ésta y "Luna nueva", que son las dos que me interesan recomprar del lote. Y venderé (sueltas) las otras cuatro. Así hago como si comprara únicamente las dos que me interesan.

  16. #41
    sabio Avatar de cesarleeds
    Fecha de ingreso
    26 feb, 15
    Mensajes
    2,395
    Agradecido
    2740 veces

    Predeterminado Re: Pack "Columbia Classics Volume 4"

    De momento el tema de los idiomas es "eteréo", en base a lo que se va filtrando por las redes.

    Yo la tengo de camino, ya con discos en mano confirmaré todo.
    BodySnatcher y blmiguel han agradecido esto.

  17. #42
    sabio Avatar de cesarleeds
    Fecha de ingreso
    26 feb, 15
    Mensajes
    2,395
    Agradecido
    2740 veces

    Predeterminado Re: Pack "Columbia Classics Volume 4"

    Según comentan en bluray.com, muchos pedidos cancelados en Deep Discount, Importcds...

    Especulan que la tirada de este volumen podría ser tan limitada como la del volumen 1.

  18. #43
    freak
    Fecha de ingreso
    06 may, 08
    Mensajes
    773
    Agradecido
    358 veces

    Predeterminado Re: Pack "Columbia Classics Volume 4"

    Yo tengo en camino la mía desde WowHd

  19. #44
    maestro
    Fecha de ingreso
    10 jun, 17
    Mensajes
    1,437
    Agradecido
    822 veces

    Predeterminado Re: Pack "Columbia Classics Volume 4"

    Cita Iniciado por cesarleeds Ver mensaje
    Según comentan en bluray.com, muchos pedidos cancelados en Deep Discount, Importcds...

    Especulan que la tirada de este volumen podría ser tan limitada como la del volumen 1.
    De momento la mia me la mantienen, esta cobrada pero no ha salido. Veremos....
    No esta disponible ni como backorder ahora mismo

  20. #45
    Goonie Avatar de Matt
    Fecha de ingreso
    30 jul, 02
    Mensajes
    1,114
    Agradecido
    603 veces

    Predeterminado Re: Pack "Columbia Classics Volume 4"

    Cita Iniciado por cesarleeds Ver mensaje
    Según comentan en bluray.com, muchos pedidos cancelados en Deep Discount, Importcds...

    Especulan que la tirada de este volumen podría ser tan limitada como la del volumen 1.
    Yo creo que esto suele pasar a menudo al principio, sobre todo con las ediciones de KL.

    En amazon.com está disponiblr, a 215$, eso si

    Saludos!!

  21. #46
    El tónico Avatar de sunshine
    Fecha de ingreso
    11 oct, 03
    Ubicación
    Sevilla
    Mensajes
    2,043
    Agradecido
    2847 veces

    Predeterminado Re: Pack "Columbia Classics Volume 4"

    En un video que he visto, un unboxing, se ve en la cover trasera claramente spanish audio y sub en los seis títulos.
    Después ya veremos si no hay sorpresa latin spanish en alguno como sucedió una noche.
    Saludos
    blmiguel ha agradecido esto.

  22. #47
    sabio Avatar de cesarleeds
    Fecha de ingreso
    26 feb, 15
    Mensajes
    2,395
    Agradecido
    2740 veces

    Predeterminado Re: Pack "Columbia Classics Volume 4"

    Bdinfo, UHD de Starman.



    DISC INFO:

    Disc Title: JOHN_CARPENTERS_STARMAN
    Disc Size: 98,442,147,840 bytes
    Protection: AACS2
    Extras: Ultra HD, BD-Java
    BDInfo: 0.7.6.1

    PLAYLIST REPORT:

    Name: 00001.MPLS
    Length: 1:54:58.891 (h:m:s.ms)
    Size: 86,246,916,096 bytes
    Total Bitrate: 100.01 Mbps

    (*) Indicates included stream hidden by this playlist.

    VIDEO:

    Codec Bitrate Description
    ----- ------- -----------
    MPEG-H HEVC Video 76526 kbps 2160p / 23.976 fps / 16:9 / Main 10 @ Level 5.1 @ High / 4:2:0 / 10 bits / 2000nits / HDR10 / BT.2020
    * MPEG-H HEVC Video 2100 kbps (2.67%) 1080p / 23.976 fps / 16:9 / Main 10 @ Level 5.1 @ High / 4:2:0 / 10 bits / 2000nits / Dolby Vision FEL / BT.2020

    AUDIO:

    Codec Language Bitrate Description
    ----- -------- ------- -----------
    Dolby TrueHD/Atmos Audio English 4895 kbps 7.1+11 objects / 48 kHz / 4255 kbps / 24-bit (AC3 Core: 5.1 / 48 kHz / 640 kbps)
    DTS-HD Master Audio English 2178 kbps 5.1 / 48 kHz / 2178 kbps / 16-bit (DTS Core: 5.1 / 48 kHz / 1509 kbps / 16-bit)
    DTS-HD Master Audio English 1562 kbps 2.0 / 48 kHz / 1562 kbps / 16-bit (DTS Core: 2.0 / 48 kHz / 1509 kbps / 16-bit)
    Dolby Digital Audio French 640 kbps 5.1 / 48 kHz / 640 kbps
    DTS-HD Master Audio German 2139 kbps 5.1 / 48 kHz / 2139 kbps / 16-bit (DTS Core: 5.1 / 48 kHz / 1509 kbps / 16-bit)
    DTS-HD Master Audio Italian 2126 kbps 5.1 / 48 kHz / 2126 kbps / 16-bit (DTS Core: 5.1 / 48 kHz / 1509 kbps / 16-bit)
    Dolby Digital Audio Spanish 640 kbps 5.1 / 48 kHz / 640 kbps
    Dolby Digital Audio Spanish 192 kbps 2.0 / 48 kHz / 192 kbps

    SUBTITLES:

    Codec Language Bitrate Description
    ----- -------- ------- -----------
    Presentation Graphics English 24.769 kbps
    Presentation Graphics English 20.496 kbps
    Presentation Graphics English 24.773 kbps
    Presentation Graphics English 20.499 kbps
    Presentation Graphics Arabic 10.745 kbps
    Presentation Graphics Chinese 18.038 kbps
    Presentation Graphics Chinese 17.117 kbps
    Presentation Graphics Danish 18.21 kbps
    Presentation Graphics Dutch 16.386 kbps
    Presentation Graphics Finnish 19.554 kbps
    Presentation Graphics French 19.193 kbps
    Presentation Graphics German 22.921 kbps
    Presentation Graphics Italian 19.871 kbps
    Presentation Graphics Korean 15.25 kbps
    Presentation Graphics Norwegian 17.865 kbps
    Presentation Graphics Portuguese 20.306 kbps
    Presentation Graphics Spanish 20.722 kbps
    Presentation Graphics Spanish 21.411 kbps
    Presentation Graphics Swedish 17.946 kbps
    Presentation Graphics Thai 20.182 kbps
    Presentation Graphics Turkish 19.396 kbps

    FILES:

    Name Time In Length Size Total Bitrate
    ---- ------- ------ ---- -------------
    00001.M2TS 0:00:00.000 1:54:58.891 86,246,916,096 100,012 kbps
    repopo, sunshine y correasremy han agradecido esto.

  23. #48
    sabio Avatar de cesarleeds
    Fecha de ingreso
    26 feb, 15
    Mensajes
    2,395
    Agradecido
    2740 veces

    Predeterminado Re: Pack "Columbia Classics Volume 4"

    Castellano en todos los 4k, según indica @letxugas en Twitter, ya tiene su copia.

    Por cierto, coleccionista top.

    https://twitter.com/letxugas/status/...EnENRGvXg&s=19
    correasremy y BodySnatcher han agradecido esto.

  24. #49
    gurú Avatar de Chimera
    Fecha de ingreso
    08 jun, 20
    Mensajes
    6,223
    Agradecido
    7642 veces

    Predeterminado Re: Pack "Columbia Classics Volume 4"

    Cita Iniciado por Matt Ver mensaje
    Yo creo que esto suele pasar a menudo al principio, sobre todo con las ediciones de KL.

    En amazon.com está disponiblr, a 215$, eso si

    Saludos!!
    Sí. Que no cunda el drama porque incluso en Amazon España sale cualquier cosa y al siguiente día sin stock o sin fecha y luego a las 2 semanas copias abundantes hasta que las tienen que saldar a precios muy inferiores.
    www.HorrorJaume.com
    Instagram @HorrorJaume Twitter @HorrorJaume
    VINEGAR SYNDROME SUBSCRIBER 2024

  25. #50
    sabio Avatar de cesarleeds
    Fecha de ingreso
    26 feb, 15
    Mensajes
    2,395
    Agradecido
    2740 veces

    Predeterminado Re: Pack "Columbia Classics Volume 4"

    Algo para recordar


    DISC INFO:

    Disc Title: SLEEPLESS_IN_SEATTLE
    Disc Size: 93,962,631,168 bytes
    Protection: AACS2
    Extras: Ultra HD, BD-Java
    BDInfo: 0.7.6.1

    PLAYLIST REPORT:

    Name: 00001.MPLS
    Length: 1:45:06.717 (h:m:s.ms)
    Size: 86,065,483,776 bytes
    Total Bitrate: 109.17 Mbps

    (*) Indicates included stream hidden by this playlist.

    VIDEO:

    Codec Bitrate Description
    ----- ------- -----------
    MPEG-H HEVC Video 77338 kbps 2160p / 23.976 fps / 16:9 / Main 10 @ Level 5.1 @ High / 4:2:0 / 10 bits / 2000nits / HDR10 / BT.2020
    * MPEG-H HEVC Video 2100 kbps (2.64%) 1080p / 23.976 fps / 16:9 / Main 10 @ Level 5.1 @ High / 4:2:0 / 10 bits / 2000nits / Dolby Vision FEL / BT.2020

    AUDIO:

    Codec Language Bitrate Description
    ----- -------- ------- -----------
    Dolby TrueHD/Atmos Audio English 4588 kbps 7.1+11 objects / 48 kHz / 3948 kbps / 24-bit (AC3 Core: 5.1 / 48 kHz / 640 kbps)
    DTS-HD Master Audio English 2148 kbps 5.1 / 48 kHz / 2148 kbps / 16-bit (DTS Core: 5.1 / 48 kHz / 1509 kbps / 16-bit)
    DTS-HD Master Audio English 1555 kbps 2.0 / 48 kHz / 1555 kbps / 16-bit (DTS Core: 2.0 / 48 kHz / 1509 kbps / 16-bit)
    DTS-HD Master Audio French 1555 kbps 2.0 / 48 kHz / 1555 kbps / 16-bit (DTS Core: 2.0 / 48 kHz / 1509 kbps / 16-bit)
    DTS-HD Master Audio French 1556 kbps 2.0 / 48 kHz / 1556 kbps / 16-bit (DTS Core: 2.0 / 48 kHz / 1509 kbps / 16-bit)
    DTS-HD Master Audio German 1556 kbps 2.0 / 48 kHz / 1556 kbps / 16-bit (DTS Core: 2.0 / 48 kHz / 1509 kbps / 16-bit)
    DTS-HD Master Audio Italian 1555 kbps 2.0 / 48 kHz / 1555 kbps / 16-bit (DTS Core: 2.0 / 48 kHz / 1509 kbps / 16-bit)
    DTS-HD Master Audio Korean 1561 kbps 2.0 / 48 kHz / 1561 kbps / 16-bit (DTS Core: 2.0 / 48 kHz / 1509 kbps / 16-bit)
    DTS-HD Master Audio Spanish 1557 kbps 2.0 / 48 kHz / 1557 kbps / 16-bit (DTS Core: 2.0 / 48 kHz / 1509 kbps / 16-bit)
    Dolby Digital Audio Spanish 192 kbps 2.0 / 48 kHz / 192 kbps / Dolby Surround
    DTS-HD Master Audio Thai 1558 kbps 2.0 / 48 kHz / 1558 kbps / 16-bit (DTS Core: 2.0 / 48 kHz / 1509 kbps / 16-bit)
    DTS-HD Master Audio Turkish 1559 kbps 2.0 / 48 kHz / 1559 kbps / 16-bit (DTS Core: 2.0 / 48 kHz / 1509 kbps / 16-bit)

    SUBTITLES:

    Codec Language Bitrate Description
    ----- -------- ------- -----------
    Presentation Graphics English 44.139 kbps
    Presentation Graphics English 33.446 kbps
    Presentation Graphics English 44.151 kbps
    Presentation Graphics English 33.461 kbps
    Presentation Graphics Arabic 17.208 kbps
    Presentation Graphics Chinese 24.02 kbps
    Presentation Graphics Chinese 29.461 kbps
    Presentation Graphics Danish 25.709 kbps
    Presentation Graphics Dutch 26.198 kbps
    Presentation Graphics Finnish 27.629 kbps
    Presentation Graphics French 28.433 kbps
    Presentation Graphics German 28.544 kbps
    Presentation Graphics Italian 26.934 kbps
    Presentation Graphics Korean 21.502 kbps
    Presentation Graphics Norwegian 25.264 kbps
    Presentation Graphics Portuguese 26.138 kbps
    Presentation Graphics Spanish 25.553 kbps
    Presentation Graphics Spanish 31.147 kbps
    Presentation Graphics Swedish 22.422 kbps
    Presentation Graphics Thai 31.84 kbps
    Presentation Graphics Turkish 29.039 kbps
    Presentation Graphics French 0.638 kbps

    FILES:

    Name Time In Length Size Total Bitrate
    ---- ------- ------ ---- -------------
    00001.M2TS 0:00:00.000 1:45:06.717 86,065,483,776 109,173 kbps

    Punch Drunk Love

    DISC INFO:

    Disc Title: PUNCH_DRUNK_LOVE
    Disc Size: 82,221,266,944 bytes
    Protection: AACS2
    Extras: Ultra HD, BD-Java
    BDInfo: 0.7.6.1

    PLAYLIST REPORT:

    Name: 00001.MPLS
    Length: 1:35:07.701 (h:m:s.ms)
    Size: 74,322,180,096 bytes
    Total Bitrate: 104.17 Mbps

    (*) Indicates included stream hidden by this playlist.

    VIDEO:

    Codec Bitrate Description
    ----- ------- -----------
    MPEG-H HEVC Video 78907 kbps 2160p / 23.976 fps / 16:9 / Main 10 @ Level 5.1 @ High / 4:2:0 / 10 bits / 1000nits / HDR10 / BT.2020
    * MPEG-H HEVC Video 2102 kbps (2.59%) 1080p / 23.976 fps / 16:9 / Main 10 @ Level 5.1 @ High / 4:2:0 / 10 bits / 1000nits / Dolby Vision FEL / BT.2020

    AUDIO:

    Codec Language Bitrate Description
    ----- -------- ------- -----------
    Dolby TrueHD/Atmos Audio English 4332 kbps 7.1+11 objects / 48 kHz / 3692 kbps / 16-bit (AC3 Core: 5.1 / 48 kHz / 640 kbps)
    DTS-HD Master Audio English 2159 kbps 5.1 / 48 kHz / 2159 kbps / 16-bit (DTS Core: 5.1 / 48 kHz / 1509 kbps / 16-bit)
    DTS-HD Master Audio French 2157 kbps 5.1 / 48 kHz / 2157 kbps / 16-bit (DTS Core: 5.1 / 48 kHz / 1509 kbps / 16-bit)
    DTS-HD Master Audio German 2158 kbps 5.1 / 48 kHz / 2158 kbps / 16-bit (DTS Core: 5.1 / 48 kHz / 1509 kbps / 16-bit)
    DTS-HD Master Audio Italian 2166 kbps 5.1 / 48 kHz / 2166 kbps / 16-bit (DTS Core: 5.1 / 48 kHz / 1509 kbps / 16-bit)
    DTS-HD Master Audio Spanish 2162 kbps 5.1 / 48 kHz / 2162 kbps / 16-bit (DTS Core: 5.1 / 48 kHz / 1509 kbps / 16-bit)
    Dolby Digital Audio Spanish 640 kbps 5.1 / 48 kHz / 640 kbps

    SUBTITLES:

    Codec Language Bitrate Description
    ----- -------- ------- -----------
    Presentation Graphics English 41.278 kbps
    Presentation Graphics English 32.231 kbps
    Presentation Graphics English 41.293 kbps
    Presentation Graphics English 32.239 kbps
    Presentation Graphics Arabic 16.16 kbps
    Presentation Graphics Chinese 25.111 kbps
    Presentation Graphics Danish 27.091 kbps
    Presentation Graphics Dutch 23.18 kbps
    Presentation Graphics Finnish 30.316 kbps
    Presentation Graphics French 25.775 kbps
    Presentation Graphics German 32.647 kbps
    Presentation Graphics Italian 30.641 kbps
    Presentation Graphics Korean 21.301 kbps
    Presentation Graphics Norwegian 26.776 kbps
    Presentation Graphics Portuguese 30.493 kbps
    Presentation Graphics Spanish 25.776 kbps
    Presentation Graphics Spanish 30.004 kbps
    Presentation Graphics Swedish 27.318 kbps
    Presentation Graphics Thai 26.965 kbps
    Presentation Graphics Turkish 26.46 kbps

    FILES:

    Name Time In Length Size Total Bitrate
    ---- ------- ------ ---- -------------
    00001.M2TS 0:00:00.000 1:35:07.701 74,322,180,096 104,171 kbps

    Luna Nueva


    DISC INFO:

    Disc Title: HIS_GIRL_FRIDAY
    Disc Size: 63,675,889,664 bytes
    Protection: AACS2
    Extras: Ultra HD, BD-Java
    BDInfo: 0.7.6.1

    PLAYLIST REPORT:

    Name: 00001.MPLS
    Length: 1:31:57.511 (h:m:s.ms)
    Size: 62,965,972,992 bytes
    Total Bitrate: 91.30 Mbps

    (*) Indicates included stream hidden by this playlist.

    VIDEO:

    Codec Bitrate Description
    ----- ------- -----------
    MPEG-H HEVC Video 75135 kbps 2160p / 23.976 fps / 16:9 / Main 10 @ Level 5.1 @ High / 4:2:0 / 10 bits / 2000nits / HDR10 / BT.2020
    * MPEG-H HEVC Video 2099 kbps (2.72%) 1080p / 23.976 fps / 16:9 / Main 10 @ Level 5.1 @ High / 4:2:0 / 10 bits / 2000nits / Dolby Vision FEL / BT.2020

    AUDIO:

    Codec Language Bitrate Description
    ----- -------- ------- -----------
    DTS-HD Master Audio English 1558 kbps 2.0 / 48 kHz / 1558 kbps / 16-bit (DTS Core: 2.0 / 48 kHz / 1509 kbps / 16-bit)
    DTS-HD Master Audio German 1558 kbps 2.0 / 48 kHz / 1558 kbps / 16-bit (DTS Core: 2.0 / 48 kHz / 1509 kbps / 16-bit)
    DTS-HD Master Audio Italian 1559 kbps 2.0 / 48 kHz / 1559 kbps / 16-bit (DTS Core: 2.0 / 48 kHz / 1509 kbps / 16-bit)
    DTS-HD Master Audio Spanish 1559 kbps 2.0 / 48 kHz / 1559 kbps / 16-bit (DTS Core: 2.0 / 48 kHz / 1509 kbps / 16-bit)
    DTS-HD Master Audio Spanish 1561 kbps 2.0 / 48 kHz / 1561 kbps / 16-bit (DTS Core: 2.0 / 48 kHz / 1509 kbps / 16-bit)

    SUBTITLES:

    Codec Language Bitrate Description
    ----- -------- ------- -----------
    Presentation Graphics English 77.893 kbps
    Presentation Graphics English 74.512 kbps
    Presentation Graphics English 77.916 kbps
    Presentation Graphics English 74.534 kbps
    Presentation Graphics Arabic 37.158 kbps
    Presentation Graphics Chinese 61.792 kbps
    Presentation Graphics Danish 41.329 kbps
    Presentation Graphics Dutch 47.839 kbps
    Presentation Graphics Finnish 45.124 kbps
    Presentation Graphics French 52.562 kbps
    Presentation Graphics German 63.198 kbps
    Presentation Graphics Italian 58.218 kbps
    Presentation Graphics Korean 53.711 kbps
    Presentation Graphics Norwegian 39.042 kbps
    Presentation Graphics Portuguese 53.383 kbps
    Presentation Graphics Spanish 49.916 kbps
    Presentation Graphics Spanish 64.712 kbps
    Presentation Graphics Swedish 41.022 kbps
    Presentation Graphics Thai 63.87 kbps
    Presentation Graphics Turkish 54.007 kbps

    FILES:

    Name Time In Length Size Total Bitrate
    ---- ------- ------ ---- -------------
    00001.M2TS 0:00:00.000 1:31:57.511 62,965,972,992 91,296 kbps

    Adivina quién viene a cenar


    DISC INFO:

    Disc Title: GUESS_WHOS_COMING_TO_DINNER
    Disc Size: 92,198,729,728 bytes
    Protection: AACS2
    Extras: Ultra HD, BD-Java
    BDInfo: 0.7.6.1

    PLAYLIST REPORT:

    Name: 00001.MPLS
    Length: 1:48:08.481 (h:m:s.ms)
    Size: 84,128,520,192 bytes
    Total Bitrate: 103.73 Mbps

    (*) Indicates included stream hidden by this playlist.

    VIDEO:

    Codec Bitrate Description
    ----- ------- -----------
    MPEG-H HEVC Video 77210 kbps 2160p / 23.976 fps / 16:9 / Main 10 @ Level 5.1 @ High / 4:2:0 / 10 bits / 2000nits / HDR10 / BT.2020
    * MPEG-H HEVC Video 2099 kbps (2.65%) 1080p / 23.976 fps / 16:9 / Main 10 @ Level 5.1 @ High / 4:2:0 / 10 bits / 2000nits / Dolby Vision FEL / BT.2020

    AUDIO:

    Codec Language Bitrate Description
    ----- -------- ------- -----------
    Dolby TrueHD/Atmos Audio English 4245 kbps 7.1+11 objects / 48 kHz / 3605 kbps / 24-bit (AC3 Core: 5.1 / 48 kHz / 640 kbps)
    DTS-HD Master Audio English 2090 kbps 5.1 / 48 kHz / 2090 kbps / 16-bit (DTS Core: 5.1 / 48 kHz / 1509 kbps / 16-bit)
    DTS-HD Master Audio English 1558 kbps 2.0 / 48 kHz / 1558 kbps / 16-bit (DTS Core: 2.0 / 48 kHz / 1509 kbps / 16-bit)
    DTS-HD Master Audio French 1559 kbps 2.0 / 48 kHz / 1559 kbps / 16-bit (DTS Core: 2.0 / 48 kHz / 1509 kbps / 16-bit)
    DTS-HD Master Audio German 1559 kbps 2.0 / 48 kHz / 1559 kbps / 16-bit (DTS Core: 2.0 / 48 kHz / 1509 kbps / 16-bit)
    DTS-HD Master Audio Italian 1559 kbps 2.0 / 48 kHz / 1559 kbps / 16-bit (DTS Core: 2.0 / 48 kHz / 1509 kbps / 16-bit)
    DTS-HD Master Audio Spanish 1558 kbps 2.0 / 48 kHz / 1558 kbps / 16-bit (DTS Core: 2.0 / 48 kHz / 1509 kbps / 16-bit)
    DTS-HD Master Audio Spanish 1561 kbps 2.0 / 48 kHz / 1561 kbps / 16-bit (DTS Core: 2.0 / 48 kHz / 1509 kbps / 16-bit)
    Dolby Digital Audio English 192 kbps 2.0 / 48 kHz / 192 kbps

    SUBTITLES:

    Codec Language Bitrate Description
    ----- -------- ------- -----------
    Presentation Graphics English 49.369 kbps
    Presentation Graphics English 42.888 kbps
    Presentation Graphics English 49.381 kbps
    Presentation Graphics English 42.9 kbps
    Presentation Graphics Arabic 22.818 kbps
    Presentation Graphics Chinese 31.448 kbps
    Presentation Graphics Danish 36.752 kbps
    Presentation Graphics Dutch 36.512 kbps
    Presentation Graphics Finnish 36.986 kbps
    Presentation Graphics French 39.492 kbps
    Presentation Graphics German 41.414 kbps
    Presentation Graphics Italian 40.726 kbps
    Presentation Graphics Korean 34.758 kbps
    Presentation Graphics Norwegian 33.711 kbps
    Presentation Graphics Portuguese 41.178 kbps
    Presentation Graphics Spanish 38.703 kbps
    Presentation Graphics Spanish 45.417 kbps
    Presentation Graphics Swedish 34.413 kbps
    Presentation Graphics Thai 38.708 kbps
    Presentation Graphics Turkish 38.215 kbps
    Presentation Graphics English 77.643 kbps
    Presentation Graphics English 72.264 kbps
    Presentation Graphics French 64.68 kbps
    Presentation Graphics German 71.659 kbps
    Presentation Graphics Italian 61.808 kbps
    Presentation Graphics Spanish 68.324 kbps

    FILES:

    Name Time In Length Size Total Bitrate
    ---- ------- ------ ---- -------------
    00001.M2TS 0:00:00.000 1:48:08.481 84,128,520,192 103,726 kbps

    Kramer contra Kramer

    DISC INFO:

    Disc Title: KRAMER_VS_KRAMER
    Disc Size: 94,370,527,232 bytes
    Protection: AACS2
    Extras: Ultra HD, BD-Java
    BDInfo: 0.7.6.1

    PLAYLIST REPORT:

    Name: 00001.MPLS
    Length: 1:44:49.282 (h:m:s.ms)
    Size: 83,022,286,848 bytes
    Total Bitrate: 105.60 Mbps

    (*) Indicates included stream hidden by this playlist.

    VIDEO:

    Codec Bitrate Description
    ----- ------- -----------
    MPEG-H HEVC Video 78741 kbps 2160p / 23.976 fps / 16:9 / Main 10 @ Level 5.1 @ High / 4:2:0 / 10 bits / 1000nits / HDR10 / BT.2020
    * MPEG-H HEVC Video 2099 kbps (2.60%) 1080p / 23.976 fps / 16:9 / Main 10 @ Level 5.1 @ High / 4:2:0 / 10 bits / 1000nits / Dolby Vision FEL / BT.2020

    AUDIO:

    Codec Language Bitrate Description
    ----- -------- ------- -----------
    Dolby TrueHD/Atmos Audio English 4351 kbps 7.1+11 objects / 48 kHz / 3711 kbps / 24-bit (AC3 Core: 5.1 / 48 kHz / 640 kbps)
    DTS-HD Master Audio English 2102 kbps 5.1 / 48 kHz / 2102 kbps / 16-bit (DTS Core: 5.1 / 48 kHz / 1509 kbps / 16-bit)
    DTS-HD Master Audio English 1558 kbps 2.0 / 48 kHz / 1558 kbps / 16-bit (DTS Core: 2.0 / 48 kHz / 1509 kbps / 16-bit)
    DTS-HD Master Audio French 2076 kbps 5.1 / 48 kHz / 2076 kbps / 16-bit (DTS Core: 5.1 / 48 kHz / 1509 kbps / 16-bit)
    DTS-HD Master Audio German 2095 kbps 5.1 / 48 kHz / 2095 kbps / 16-bit (DTS Core: 5.1 / 48 kHz / 1509 kbps / 16-bit)
    DTS-HD Master Audio Italian 2083 kbps 5.1 / 48 kHz / 2083 kbps / 16-bit (DTS Core: 5.1 / 48 kHz / 1509 kbps / 16-bit)
    Dolby Digital Audio Spanish 640 kbps 5.1 / 48 kHz / 640 kbps
    Dolby Digital Audio Spanish 640 kbps 5.1 / 48 kHz / 640 kbps
    Dolby Digital Audio Thai 640 kbps 5.1 / 48 kHz / 640 kbps
    Dolby Digital Audio Turkish 192 kbps 2.0 / 48 kHz / 192 kbps
    Dolby Digital Audio English 192 kbps 2.0 / 48 kHz / 192 kbps / Dolby Surround

    SUBTITLES:

    Codec Language Bitrate Description
    ----- -------- ------- -----------
    Presentation Graphics English 46.142 kbps
    Presentation Graphics English 38.27 kbps
    Presentation Graphics English 46.16 kbps
    Presentation Graphics English 38.285 kbps
    Presentation Graphics Arabic 20.574 kbps
    Presentation Graphics Chinese 33.721 kbps
    Presentation Graphics Chinese 33.864 kbps
    Presentation Graphics Danish 30.927 kbps
    Presentation Graphics Dutch 29.698 kbps
    Presentation Graphics Finnish 31.238 kbps
    Presentation Graphics French 33.201 kbps
    Presentation Graphics German 41.24 kbps
    Presentation Graphics Italian 36.403 kbps
    Presentation Graphics Korean 26.876 kbps
    Presentation Graphics Norwegian 27.737 kbps
    Presentation Graphics Portuguese 38.444 kbps
    Presentation Graphics Spanish 29.29 kbps
    Presentation Graphics Spanish 33.203 kbps
    Presentation Graphics Thai 31.884 kbps
    Presentation Graphics Turkish 33.189 kbps
    Presentation Graphics English 54.785 kbps
    Presentation Graphics English 50.471 kbps
    Presentation Graphics French 43.205 kbps
    Presentation Graphics German 51.566 kbps
    Presentation Graphics Italian 45.133 kbps
    Presentation Graphics Spanish 39.561 kbps
    Presentation Graphics Swedish 26.559 kbps

    FILES:

    Name Time In Length Size Total Bitrate
    ---- ------- ------ ---- -------------
    00001.M2TS 0:00:00.000 1:44:49.282 83,022,286,848 105,604 kbps
    sunshine, george_crow, Ponyo_11 y 2 usuarios han agradecido esto.

+ Responder tema
Página 2 de 5 PrimerPrimer 1234 ... ÚltimoÚltimo

Permisos de publicación

  • No puedes crear nuevos temas
  • No puedes responder temas
  • No puedes subir archivos adjuntos
  • No puedes editar tus mensajes
  •  
Powered by vBulletin® Version 4.2.1
Copyright © 2024 vBulletin Solutions, Inc. All rights reserved.
SEO by vBSEO
Image resizer by SevenSkins