Regístrate gratis¡Bienvenido a mundodvd! Regístrate ahora y accede a todos los contenidos de la web. El registro es totalmente gratuito y obtendrás muchas ventajas.
Blu-ray, DVD y cine en casa
Regístrate gratis!
Registro en mundodvd
+ Responder tema
Página 3 de 5 PrimerPrimer 12345 ÚltimoÚltimo
Resultados 51 al 75 de 102

Tema: Pack "Columbia Classics Volume 4"

  1. #51
    Super Moderador Avatar de repopo
    Fecha de ingreso
    13 nov, 03
    Mensajes
    27,725
    Agradecido
    44100 veces

    Predeterminado Re: Pack "Columbia Classics Volume 4"

    Muchas gracias por la información.

    ¿Puedes comentar algo del disco bonus de Starman? La serie, vamos.

    Y una sugerencia. Si en lugar de "quote", empleas "code", el formato es diferente, y más cómodo para leer y comparar.
    Ponyo_11 ha agradecido esto.

  2. #52
    Amante de Bella Note Avatar de Ponyo_11
    Fecha de ingreso
    05 mar, 11
    Ubicación
    Cádiz
    Mensajes
    25,366
    Agradecido
    18505 veces

    Predeterminado Re: Pack "Columbia Classics Volume 4"

    Algo para recordar


    Código:
    DISC INFO:
    
    Disc Title: SLEEPLESS_IN_SEATTLE
    Disc Size: 93,962,631,168 bytes
    Protection: AACS2
    Extras: Ultra HD, BD-Java
    BDInfo: 0.7.6.1
    
    PLAYLIST REPORT:
    
    Name: 00001.MPLS
    Length: 1:45:06.717 (h:m:s.ms)
    Size: 86,065,483,776 bytes
    Total Bitrate: 109.17 Mbps
    
    (*) Indicates included stream hidden by this playlist.
    
    VIDEO:
    
    Codec Bitrate Description
    ----- ------- -----------
    MPEG-H HEVC Video 77338 kbps 2160p / 23.976 fps / 16:9 / Main 10 @ Level 5.1 @ High / 4:2:0 / 10 bits / 2000nits / HDR10 / BT.2020
    * MPEG-H HEVC Video 2100 kbps (2.64%) 1080p / 23.976 fps / 16:9 / Main 10 @ Level 5.1 @ High / 4:2:0 / 10 bits / 2000nits / Dolby Vision FEL / BT.2020
    
    AUDIO:
    
    Codec Language Bitrate Description
    ----- -------- ------- -----------
    Dolby TrueHD/Atmos Audio English 4588 kbps 7.1+11 objects / 48 kHz / 3948 kbps / 24-bit (AC3 Core: 5.1 / 48 kHz / 640 kbps)
    DTS-HD Master Audio English 2148 kbps 5.1 / 48 kHz / 2148 kbps / 16-bit (DTS Core: 5.1 / 48 kHz / 1509 kbps / 16-bit)
    DTS-HD Master Audio English 1555 kbps 2.0 / 48 kHz / 1555 kbps / 16-bit (DTS Core: 2.0 / 48 kHz / 1509 kbps / 16-bit)
    DTS-HD Master Audio French 1555 kbps 2.0 / 48 kHz / 1555 kbps / 16-bit (DTS Core: 2.0 / 48 kHz / 1509 kbps / 16-bit)
    DTS-HD Master Audio French 1556 kbps 2.0 / 48 kHz / 1556 kbps / 16-bit (DTS Core: 2.0 / 48 kHz / 1509 kbps / 16-bit)
    DTS-HD Master Audio German 1556 kbps 2.0 / 48 kHz / 1556 kbps / 16-bit (DTS Core: 2.0 / 48 kHz / 1509 kbps / 16-bit)
    DTS-HD Master Audio Italian 1555 kbps 2.0 / 48 kHz / 1555 kbps / 16-bit (DTS Core: 2.0 / 48 kHz / 1509 kbps / 16-bit)
    DTS-HD Master Audio Korean 1561 kbps 2.0 / 48 kHz / 1561 kbps / 16-bit (DTS Core: 2.0 / 48 kHz / 1509 kbps / 16-bit)
    DTS-HD Master Audio Spanish 1557 kbps 2.0 / 48 kHz / 1557 kbps / 16-bit (DTS Core: 2.0 / 48 kHz / 1509 kbps / 16-bit)
    Dolby Digital Audio Spanish 192 kbps 2.0 / 48 kHz / 192 kbps / Dolby Surround
    DTS-HD Master Audio Thai 1558 kbps 2.0 / 48 kHz / 1558 kbps / 16-bit (DTS Core: 2.0 / 48 kHz / 1509 kbps / 16-bit)
    DTS-HD Master Audio Turkish 1559 kbps 2.0 / 48 kHz / 1559 kbps / 16-bit (DTS Core: 2.0 / 48 kHz / 1509 kbps / 16-bit)
    
    SUBTITLES:
    
    Codec Language Bitrate Description
    ----- -------- ------- -----------
    Presentation Graphics English 44.139 kbps
    Presentation Graphics English 33.446 kbps
    Presentation Graphics English 44.151 kbps
    Presentation Graphics English 33.461 kbps
    Presentation Graphics Arabic 17.208 kbps
    Presentation Graphics Chinese 24.02 kbps
    Presentation Graphics Chinese 29.461 kbps
    Presentation Graphics Danish 25.709 kbps
    Presentation Graphics Dutch 26.198 kbps
    Presentation Graphics Finnish 27.629 kbps
    Presentation Graphics French 28.433 kbps
    Presentation Graphics German 28.544 kbps
    Presentation Graphics Italian 26.934 kbps
    Presentation Graphics Korean 21.502 kbps
    Presentation Graphics Norwegian 25.264 kbps
    Presentation Graphics Portuguese 26.138 kbps
    Presentation Graphics Spanish 25.553 kbps
    Presentation Graphics Spanish 31.147 kbps
    Presentation Graphics Swedish 22.422 kbps
    Presentation Graphics Thai 31.84 kbps
    Presentation Graphics Turkish 29.039 kbps
    Presentation Graphics French 0.638 kbps
    
    FILES:
    
    Name Time In Length Size Total Bitrate
    ---- ------- ------ ---- -------------
    00001.M2TS 0:00:00.000 1:45:06.717 86,065,483,776 109,173 kbps
    Punch Drunk Love


    Código:
    DISC INFO:
    
    Disc Title: PUNCH_DRUNK_LOVE
    Disc Size: 82,221,266,944 bytes
    Protection: AACS2
    Extras: Ultra HD, BD-Java
    BDInfo: 0.7.6.1
    
    PLAYLIST REPORT:
    
    Name: 00001.MPLS
    Length: 1:35:07.701 (h:m:s.ms)
    Size: 74,322,180,096 bytes
    Total Bitrate: 104.17 Mbps
    
    (*) Indicates included stream hidden by this playlist.
    
    VIDEO:
    
    Codec Bitrate Description
    ----- ------- -----------
    MPEG-H HEVC Video 78907 kbps 2160p / 23.976 fps / 16:9 / Main 10 @ Level 5.1 @ High / 4:2:0 / 10 bits / 1000nits / HDR10 / BT.2020
    * MPEG-H HEVC Video 2102 kbps (2.59%) 1080p / 23.976 fps / 16:9 / Main 10 @ Level 5.1 @ High / 4:2:0 / 10 bits / 1000nits / Dolby Vision FEL / BT.2020
    
    AUDIO:
    
    Codec Language Bitrate Description
    ----- -------- ------- -----------
    Dolby TrueHD/Atmos Audio English 4332 kbps 7.1+11 objects / 48 kHz / 3692 kbps / 16-bit (AC3 Core: 5.1 / 48 kHz / 640 kbps)
    DTS-HD Master Audio English 2159 kbps 5.1 / 48 kHz / 2159 kbps / 16-bit (DTS Core: 5.1 / 48 kHz / 1509 kbps / 16-bit)
    DTS-HD Master Audio French 2157 kbps 5.1 / 48 kHz / 2157 kbps / 16-bit (DTS Core: 5.1 / 48 kHz / 1509 kbps / 16-bit)
    DTS-HD Master Audio German 2158 kbps 5.1 / 48 kHz / 2158 kbps / 16-bit (DTS Core: 5.1 / 48 kHz / 1509 kbps / 16-bit)
    DTS-HD Master Audio Italian 2166 kbps 5.1 / 48 kHz / 2166 kbps / 16-bit (DTS Core: 5.1 / 48 kHz / 1509 kbps / 16-bit)
    DTS-HD Master Audio Spanish 2162 kbps 5.1 / 48 kHz / 2162 kbps / 16-bit (DTS Core: 5.1 / 48 kHz / 1509 kbps / 16-bit)
    Dolby Digital Audio Spanish 640 kbps 5.1 / 48 kHz / 640 kbps
    
    SUBTITLES:
    
    Codec Language Bitrate Description
    ----- -------- ------- -----------
    Presentation Graphics English 41.278 kbps
    Presentation Graphics English 32.231 kbps
    Presentation Graphics English 41.293 kbps
    Presentation Graphics English 32.239 kbps
    Presentation Graphics Arabic 16.16 kbps
    Presentation Graphics Chinese 25.111 kbps
    Presentation Graphics Danish 27.091 kbps
    Presentation Graphics Dutch 23.18 kbps
    Presentation Graphics Finnish 30.316 kbps
    Presentation Graphics French 25.775 kbps
    Presentation Graphics German 32.647 kbps
    Presentation Graphics Italian 30.641 kbps
    Presentation Graphics Korean 21.301 kbps
    Presentation Graphics Norwegian 26.776 kbps
    Presentation Graphics Portuguese 30.493 kbps
    Presentation Graphics Spanish 25.776 kbps
    Presentation Graphics Spanish 30.004 kbps
    Presentation Graphics Swedish 27.318 kbps
    Presentation Graphics Thai 26.965 kbps
    Presentation Graphics Turkish 26.46 kbps
    
    FILES:
    
    Name Time In Length Size Total Bitrate
    ---- ------- ------ ---- -------------
    00001.M2TS 0:00:00.000 1:35:07.701 74,322,180,096 104,171 kbps
    Luna Nueva


    Código:
    DISC INFO:
    
    Disc Title: HIS_GIRL_FRIDAY
    Disc Size: 63,675,889,664 bytes
    Protection: AACS2
    Extras: Ultra HD, BD-Java
    BDInfo: 0.7.6.1
    
    PLAYLIST REPORT:
    
    Name: 00001.MPLS
    Length: 1:31:57.511 (h:m:s.ms)
    Size: 62,965,972,992 bytes
    Total Bitrate: 91.30 Mbps
    
    (*) Indicates included stream hidden by this playlist.
    
    VIDEO:
    
    Codec Bitrate Description
    ----- ------- -----------
    MPEG-H HEVC Video 75135 kbps 2160p / 23.976 fps / 16:9 / Main 10 @ Level 5.1 @ High / 4:2:0 / 10 bits / 2000nits / HDR10 / BT.2020
    * MPEG-H HEVC Video 2099 kbps (2.72%) 1080p / 23.976 fps / 16:9 / Main 10 @ Level 5.1 @ High / 4:2:0 / 10 bits / 2000nits / Dolby Vision FEL / BT.2020
    
    AUDIO:
    
    Codec Language Bitrate Description
    ----- -------- ------- -----------
    DTS-HD Master Audio English 1558 kbps 2.0 / 48 kHz / 1558 kbps / 16-bit (DTS Core: 2.0 / 48 kHz / 1509 kbps / 16-bit)
    DTS-HD Master Audio German 1558 kbps 2.0 / 48 kHz / 1558 kbps / 16-bit (DTS Core: 2.0 / 48 kHz / 1509 kbps / 16-bit)
    DTS-HD Master Audio Italian 1559 kbps 2.0 / 48 kHz / 1559 kbps / 16-bit (DTS Core: 2.0 / 48 kHz / 1509 kbps / 16-bit)
    DTS-HD Master Audio Spanish 1559 kbps 2.0 / 48 kHz / 1559 kbps / 16-bit (DTS Core: 2.0 / 48 kHz / 1509 kbps / 16-bit)
    DTS-HD Master Audio Spanish 1561 kbps 2.0 / 48 kHz / 1561 kbps / 16-bit (DTS Core: 2.0 / 48 kHz / 1509 kbps / 16-bit)
    
    SUBTITLES:
    
    Codec Language Bitrate Description
    ----- -------- ------- -----------
    Presentation Graphics English 77.893 kbps
    Presentation Graphics English 74.512 kbps
    Presentation Graphics English 77.916 kbps
    Presentation Graphics English 74.534 kbps
    Presentation Graphics Arabic 37.158 kbps
    Presentation Graphics Chinese 61.792 kbps
    Presentation Graphics Danish 41.329 kbps
    Presentation Graphics Dutch 47.839 kbps
    Presentation Graphics Finnish 45.124 kbps
    Presentation Graphics French 52.562 kbps
    Presentation Graphics German 63.198 kbps
    Presentation Graphics Italian 58.218 kbps
    Presentation Graphics Korean 53.711 kbps
    Presentation Graphics Norwegian 39.042 kbps
    Presentation Graphics Portuguese 53.383 kbps
    Presentation Graphics Spanish 49.916 kbps
    Presentation Graphics Spanish 64.712 kbps
    Presentation Graphics Swedish 41.022 kbps
    Presentation Graphics Thai 63.87 kbps
    Presentation Graphics Turkish 54.007 kbps
    
    FILES:
    
    Name Time In Length Size Total Bitrate
    ---- ------- ------ ---- -------------
    00001.M2TS 0:00:00.000 1:31:57.511 62,965,972,992 91,296 kbps
    Adivina quién viene a cenar


    Código:
    DISC INFO:
    
    Disc Title: GUESS_WHOS_COMING_TO_DINNER
    Disc Size: 92,198,729,728 bytes
    Protection: AACS2
    Extras: Ultra HD, BD-Java
    BDInfo: 0.7.6.1
    
    PLAYLIST REPORT:
    
    Name: 00001.MPLS
    Length: 1:48:08.481 (h:m:s.ms)
    Size: 84,128,520,192 bytes
    Total Bitrate: 103.73 Mbps
    
    (*) Indicates included stream hidden by this playlist.
    
    VIDEO:
    
    Codec Bitrate Description
    ----- ------- -----------
    MPEG-H HEVC Video 77210 kbps 2160p / 23.976 fps / 16:9 / Main 10 @ Level 5.1 @ High / 4:2:0 / 10 bits / 2000nits / HDR10 / BT.2020
    * MPEG-H HEVC Video 2099 kbps (2.65%) 1080p / 23.976 fps / 16:9 / Main 10 @ Level 5.1 @ High / 4:2:0 / 10 bits / 2000nits / Dolby Vision FEL / BT.2020
    
    AUDIO:
    
    Codec Language Bitrate Description
    ----- -------- ------- -----------
    Dolby TrueHD/Atmos Audio English 4245 kbps 7.1+11 objects / 48 kHz / 3605 kbps / 24-bit (AC3 Core: 5.1 / 48 kHz / 640 kbps)
    DTS-HD Master Audio English 2090 kbps 5.1 / 48 kHz / 2090 kbps / 16-bit (DTS Core: 5.1 / 48 kHz / 1509 kbps / 16-bit)
    DTS-HD Master Audio English 1558 kbps 2.0 / 48 kHz / 1558 kbps / 16-bit (DTS Core: 2.0 / 48 kHz / 1509 kbps / 16-bit)
    DTS-HD Master Audio French 1559 kbps 2.0 / 48 kHz / 1559 kbps / 16-bit (DTS Core: 2.0 / 48 kHz / 1509 kbps / 16-bit)
    DTS-HD Master Audio German 1559 kbps 2.0 / 48 kHz / 1559 kbps / 16-bit (DTS Core: 2.0 / 48 kHz / 1509 kbps / 16-bit)
    DTS-HD Master Audio Italian 1559 kbps 2.0 / 48 kHz / 1559 kbps / 16-bit (DTS Core: 2.0 / 48 kHz / 1509 kbps / 16-bit)
    DTS-HD Master Audio Spanish 1558 kbps 2.0 / 48 kHz / 1558 kbps / 16-bit (DTS Core: 2.0 / 48 kHz / 1509 kbps / 16-bit)
    DTS-HD Master Audio Spanish 1561 kbps 2.0 / 48 kHz / 1561 kbps / 16-bit (DTS Core: 2.0 / 48 kHz / 1509 kbps / 16-bit)
    Dolby Digital Audio English 192 kbps 2.0 / 48 kHz / 192 kbps
    
    SUBTITLES:
    
    Codec Language Bitrate Description
    ----- -------- ------- -----------
    Presentation Graphics English 49.369 kbps
    Presentation Graphics English 42.888 kbps
    Presentation Graphics English 49.381 kbps
    Presentation Graphics English 42.9 kbps
    Presentation Graphics Arabic 22.818 kbps
    Presentation Graphics Chinese 31.448 kbps
    Presentation Graphics Danish 36.752 kbps
    Presentation Graphics Dutch 36.512 kbps
    Presentation Graphics Finnish 36.986 kbps
    Presentation Graphics French 39.492 kbps
    Presentation Graphics German 41.414 kbps
    Presentation Graphics Italian 40.726 kbps
    Presentation Graphics Korean 34.758 kbps
    Presentation Graphics Norwegian 33.711 kbps
    Presentation Graphics Portuguese 41.178 kbps
    Presentation Graphics Spanish 38.703 kbps
    Presentation Graphics Spanish 45.417 kbps
    Presentation Graphics Swedish 34.413 kbps
    Presentation Graphics Thai 38.708 kbps
    Presentation Graphics Turkish 38.215 kbps
    Presentation Graphics English 77.643 kbps
    Presentation Graphics English 72.264 kbps
    Presentation Graphics French 64.68 kbps
    Presentation Graphics German 71.659 kbps
    Presentation Graphics Italian 61.808 kbps
    Presentation Graphics Spanish 68.324 kbps
    
    FILES:
    
    Name Time In Length Size Total Bitrate
    ---- ------- ------ ---- -------------
    00001.M2TS 0:00:00.000 1:48:08.481 84,128,520,192 103,726 kbps
    Kramer contra Kramer


    Código:
    DISC INFO:
    
    Disc Title: KRAMER_VS_KRAMER
    Disc Size: 94,370,527,232 bytes
    Protection: AACS2
    Extras: Ultra HD, BD-Java
    BDInfo: 0.7.6.1
    
    PLAYLIST REPORT:
    
    Name: 00001.MPLS
    Length: 1:44:49.282 (h:m:s.ms)
    Size: 83,022,286,848 bytes
    Total Bitrate: 105.60 Mbps
    
    (*) Indicates included stream hidden by this playlist.
    
    VIDEO:
    
    Codec Bitrate Description
    ----- ------- -----------
    MPEG-H HEVC Video 78741 kbps 2160p / 23.976 fps / 16:9 / Main 10 @ Level 5.1 @ High / 4:2:0 / 10 bits / 1000nits / HDR10 / BT.2020
    * MPEG-H HEVC Video 2099 kbps (2.60%) 1080p / 23.976 fps / 16:9 / Main 10 @ Level 5.1 @ High / 4:2:0 / 10 bits / 1000nits / Dolby Vision FEL / BT.2020
    
    AUDIO:
    
    Codec Language Bitrate Description
    ----- -------- ------- -----------
    Dolby TrueHD/Atmos Audio English 4351 kbps 7.1+11 objects / 48 kHz / 3711 kbps / 24-bit (AC3 Core: 5.1 / 48 kHz / 640 kbps)
    DTS-HD Master Audio English 2102 kbps 5.1 / 48 kHz / 2102 kbps / 16-bit (DTS Core: 5.1 / 48 kHz / 1509 kbps / 16-bit)
    DTS-HD Master Audio English 1558 kbps 2.0 / 48 kHz / 1558 kbps / 16-bit (DTS Core: 2.0 / 48 kHz / 1509 kbps / 16-bit)
    DTS-HD Master Audio French 2076 kbps 5.1 / 48 kHz / 2076 kbps / 16-bit (DTS Core: 5.1 / 48 kHz / 1509 kbps / 16-bit)
    DTS-HD Master Audio German 2095 kbps 5.1 / 48 kHz / 2095 kbps / 16-bit (DTS Core: 5.1 / 48 kHz / 1509 kbps / 16-bit)
    DTS-HD Master Audio Italian 2083 kbps 5.1 / 48 kHz / 2083 kbps / 16-bit (DTS Core: 5.1 / 48 kHz / 1509 kbps / 16-bit)
    Dolby Digital Audio Spanish 640 kbps 5.1 / 48 kHz / 640 kbps
    Dolby Digital Audio Spanish 640 kbps 5.1 / 48 kHz / 640 kbps
    Dolby Digital Audio Thai 640 kbps 5.1 / 48 kHz / 640 kbps
    Dolby Digital Audio Turkish 192 kbps 2.0 / 48 kHz / 192 kbps
    Dolby Digital Audio English 192 kbps 2.0 / 48 kHz / 192 kbps / Dolby Surround
    
    SUBTITLES:
    
    Codec Language Bitrate Description
    ----- -------- ------- -----------
    Presentation Graphics English 46.142 kbps
    Presentation Graphics English 38.27 kbps
    Presentation Graphics English 46.16 kbps
    Presentation Graphics English 38.285 kbps
    Presentation Graphics Arabic 20.574 kbps
    Presentation Graphics Chinese 33.721 kbps
    Presentation Graphics Chinese 33.864 kbps
    Presentation Graphics Danish 30.927 kbps
    Presentation Graphics Dutch 29.698 kbps
    Presentation Graphics Finnish 31.238 kbps
    Presentation Graphics French 33.201 kbps
    Presentation Graphics German 41.24 kbps
    Presentation Graphics Italian 36.403 kbps
    Presentation Graphics Korean 26.876 kbps
    Presentation Graphics Norwegian 27.737 kbps
    Presentation Graphics Portuguese 38.444 kbps
    Presentation Graphics Spanish 29.29 kbps
    Presentation Graphics Spanish 33.203 kbps
    Presentation Graphics Thai 31.884 kbps
    Presentation Graphics Turkish 33.189 kbps
    Presentation Graphics English 54.785 kbps
    Presentation Graphics English 50.471 kbps
    Presentation Graphics French 43.205 kbps
    Presentation Graphics German 51.566 kbps
    Presentation Graphics Italian 45.133 kbps
    Presentation Graphics Spanish 39.561 kbps
    Presentation Graphics Swedish 26.559 kbps
    
    FILES:
    
    Name Time In Length Size Total Bitrate
    ---- ------- ------ ---- -------------
    00001.M2TS 0:00:00.000 1:44:49.282 83,022,286,848 105,604 kbps
    sunshine, george_crow, correasremy y 1 usuarios han agradecido esto.

  3. #53
    Amante de Bella Note Avatar de Ponyo_11
    Fecha de ingreso
    05 mar, 11
    Ubicación
    Cádiz
    Mensajes
    25,366
    Agradecido
    18505 veces

    Predeterminado Re: Pack "Columbia Classics Volume 4"

    Cita Iniciado por repopo Ver mensaje
    ¿Puedes comentar algo del disco bonus de Starman? La serie, vamos.
    Según he leído, nada de español, ni en subtítulos, ni latino. No confirmo.
    repopo ha agradecido esto.

  4. #54
    gurú Avatar de Chimera
    Fecha de ingreso
    08 jun, 20
    Mensajes
    6,221
    Agradecido
    7629 veces

    Predeterminado Re: Pack "Columbia Classics Volume 4"

    BD-100 para Algo para recordar. Me alegra, tuvo una edición basuresca en blu-ray pelada e imagen justita cuando en DVD se había lanzado en 2003 una edición coleccionista.
    www.HorrorJaume.com
    Instagram @HorrorJaume Twitter @HorrorJaume
    VINEGAR SYNDROME SUBSCRIBER 2024

  5. #55
    experto Avatar de BodySnatcher
    Fecha de ingreso
    25 jul, 11
    Mensajes
    467
    Agradecido
    1094 veces

    Predeterminado Re: Pack "Columbia Classics Volume 4"

    Cita Iniciado por Chimera Ver mensaje
    BD-100 para Algo para recordar. Me alegra, tuvo una edición basuresca en blu-ray pelada e imagen justita cuando en DVD se había lanzado en 2003 una edición coleccionista.
    Por los comentarios de varios usuarios, "Algo para recordar" es, con diferencia, la que presenta una calidad imagen más floja de este nuevo pack. Recordemos que la fotografía original tampoco da para mucho mas.
    Trek y Chimera han agradecido esto.

  6. #56
    sabio Avatar de cesarleeds
    Fecha de ingreso
    26 feb, 15
    Mensajes
    2,395
    Agradecido
    2740 veces

    Predeterminado Re: Pack "Columbia Classics Volume 4"

    Cita Iniciado por repopo Ver mensaje
    Muchas gracias por la información.

    ¿Puedes comentar algo del disco bonus de Starman? La serie, vamos.

    Y una sugerencia. Si en lugar de "quote", empleas "code", el formato es diferente, y más cómodo para leer y comparar.
    Me lo apunto para la próxima, visto que Ponyo ya ha salido al rescate, gracias por el consejo.

    En cuanto al disco con la serie, subs en inglés, francés y alemán.

    https://twitter.com/letxugas/status/...Vymmd83YQ&s=19
    repopo, Ponyo_11, BodySnatcher y 1 usuarios han agradecido esto.

  7. #57
    freak Avatar de Nerzhul
    Fecha de ingreso
    04 oct, 15
    Mensajes
    533
    Agradecido
    1034 veces

    Predeterminado Re: Pack "Columbia Classics Volume 4"

    Como curiosidad, en Luna nueva el UHD viene sin el audiocomentario subtitulado en castellano, en el Blu-ray de esta misma edición si que viene.
    sondela89 ha agradecido esto.

  8. #58
    gurú Avatar de Chimera
    Fecha de ingreso
    08 jun, 20
    Mensajes
    6,221
    Agradecido
    7629 veces

    Predeterminado Re: Pack "Columbia Classics Volume 4"

    Cita Iniciado por Nerzhul Ver mensaje
    Como curiosidad, en Luna nueva el UHD viene sin el audiocomentario subtitulado en castellano, en el Blu-ray de esta misma edición si que viene.
    Qué incompetencia
    www.HorrorJaume.com
    Instagram @HorrorJaume Twitter @HorrorJaume
    VINEGAR SYNDROME SUBSCRIBER 2024

  9. #59
    The Final Frontier Avatar de Trek
    Fecha de ingreso
    30 abr, 06
    Mensajes
    38,719
    Agradecido
    167189 veces

    Predeterminado Re: Pack "Columbia Classics Volume 4"

    Incompetencia, no. Eso ya pasaba en los anteriores volúmenes y, tal vez, gracias a ello tengamos castellano en los discos, porque de lo contrario, de subtitular los extras en todos los idiomas, tuvieran que descartar audios.

  10. #60
    gurú Avatar de Chimera
    Fecha de ingreso
    08 jun, 20
    Mensajes
    6,221
    Agradecido
    7629 veces

    Predeterminado Re: Pack "Columbia Classics Volume 4"

    ¿cuánto pesa un archivo de subtitulado?

    Vemos que usan BD-100 y no es una película extensa.
    www.HorrorJaume.com
    Instagram @HorrorJaume Twitter @HorrorJaume
    VINEGAR SYNDROME SUBSCRIBER 2024

  11. #61
    Crew Expendable Avatar de Muthur
    Fecha de ingreso
    24 may, 21
    Ubicación
    LV-426 (Acheron)
    Mensajes
    2,416
    Agradecido
    3162 veces

    Predeterminado Re: Pack "Columbia Classics Volume 4"

    Cita Iniciado por Chimera Ver mensaje
    ¿cuánto pesa un archivo de subtitulado?
    Lo "grave" es cuestionarse siquiera si la no inclusión de un doblaje o subtitulado tiene algo que ver con el "peso" de esa pista...
    INTERFACE 2037 READY FOR INQUIRY...

  12. #62
    gurú Avatar de Chimera
    Fecha de ingreso
    08 jun, 20
    Mensajes
    6,221
    Agradecido
    7629 veces

    Predeterminado Re: Pack "Columbia Classics Volume 4"

    Cita Iniciado por Muthur Ver mensaje
    Lo "grave" es cuestionarse siquiera si la no inclusión de un doblaje o subtitulado tiene algo que ver con el "peso" de esa pista...
    Pasó con Scream 2 que por usar un BD-66 nos comimos 2.0
    www.HorrorJaume.com
    Instagram @HorrorJaume Twitter @HorrorJaume
    VINEGAR SYNDROME SUBSCRIBER 2024

  13. #63
    Crew Expendable Avatar de Muthur
    Fecha de ingreso
    24 may, 21
    Ubicación
    LV-426 (Acheron)
    Mensajes
    2,416
    Agradecido
    3162 veces

    Predeterminado Re: Pack "Columbia Classics Volume 4"

    Cita Iniciado por Chimera Ver mensaje
    Pasó con Scream 2 que por usar un BD-66 nos comimos 2.0
    Insisto: Creer que no metieron otra pista por el peso de la misma, es de muy noob, y tú ya tienes los huevetes pelaos en el mercado, compañero.
    INTERFACE 2037 READY FOR INQUIRY...

  14. #64
    gurú Avatar de Chimera
    Fecha de ingreso
    08 jun, 20
    Mensajes
    6,221
    Agradecido
    7629 veces

    Predeterminado Re: Pack "Columbia Classics Volume 4"

    Cita Iniciado por Muthur Ver mensaje
    Insisto: Creer que no metieron otra pista por el peso de la misma, es de muy noob, y tú ya tienes los huevetes pelaos en el mercado, compañero.
    Por eso dije "Qué incompetencia" en primer lugar.
    www.HorrorJaume.com
    Instagram @HorrorJaume Twitter @HorrorJaume
    VINEGAR SYNDROME SUBSCRIBER 2024

  15. #65
    Super Moderador Avatar de repopo
    Fecha de ingreso
    13 nov, 03
    Mensajes
    27,725
    Agradecido
    44100 veces

    Predeterminado Re: Pack "Columbia Classics Volume 4"

    Esa clase de decisiones no son cuestión de competencia o capacidad técnica. Han demostrado que son perfectamente capaces de hacerlo, y hacerlo bien. Es una cuestión de políticas de empresa, que no tienen por qué compartir con sus clientes, pese a que podamos elucubrar al respecto.

  16. #66
    Senior Member Avatar de jmac1972
    Fecha de ingreso
    02 mar, 04
    Mensajes
    9,775
    Agradecido
    11120 veces

    Predeterminado Re: Pack "Columbia Classics Volume 4"

    Cita Iniciado por Chimera Ver mensaje
    ¿cuánto pesa un archivo de subtitulado?

    Vemos que usan BD-100 y no es una película extensa.
    En una película de unas dos horas un archivo .sup en un bluray entre 16-20 megas si no recuerdo mal. En UHD ni idea.

  17. #67
    Senior Member Avatar de jmac1972
    Fecha de ingreso
    02 mar, 04
    Mensajes
    9,775
    Agradecido
    11120 veces

    Predeterminado Re: Pack "Columbia Classics Volume 4"

    Cita Iniciado por Chimera Ver mensaje
    Pasó con Scream 2 que por usar un BD-66 nos comimos 2.0
    Un Dolby (.ac3) en 2.0 150 megas. Un 5.1 sobre 350 megas.
    Hablo de memoria.

  18. #68
    sabio Avatar de cesarleeds
    Fecha de ingreso
    26 feb, 15
    Mensajes
    2,395
    Agradecido
    2740 veces

    Predeterminado Re: Pack "Columbia Classics Volume 4"

    Cita Iniciado por jmac1972 Ver mensaje
    En una película de unas dos horas un archivo .sup en un bluray entre 16-20 megas si no recuerdo mal. En UHD ni idea.
    No hay diferencia entre un subtitulo de un bd o un uhd que pueda afectar significativamente a su peso, la imagen de cada línea de subtitulo, en ambos casos, es HD.
    Última edición por cesarleeds; 17/02/2024 a las 15:04
    jmac1972 ha agradecido esto.

  19. #69
    The Final Frontier Avatar de Trek
    Fecha de ingreso
    30 abr, 06
    Mensajes
    38,719
    Agradecido
    167189 veces

    Predeterminado Re: Pack "Columbia Classics Volume 4"

    En mi comentario no iban por ahí los tiros

    Simplemente que la inclusión sea de extras u otras características, muchas veces hacen que se desechen las ediciones para ciertos países. Ya hemos visto como cuando nos quejamos de la no inclusión de subtítulos en los extras, la solución que dieron fueron no incluirnos. Incluso se han dado casos de no editar ciertas ediciones combo bd/uhd porque el bd no era nueva autoría y al no incluir doblaje castellano, algunos pusieron el grito en el cielo de forma desmesurada, terminando el tema con la cancelación del lanzamiento.

    Luego lo "grave" es creerse el sabio del universo, cuando la realidad es que no pasa de pringado.
    ryder y Goncy han agradecido esto.

  20. #70
    gurú Avatar de Chimera
    Fecha de ingreso
    08 jun, 20
    Mensajes
    6,221
    Agradecido
    7629 veces

    Predeterminado Re: Pack "Columbia Classics Volume 4"

    Es mejor quedarse sin un lanzamiento que tener un lanzamiento a medio gas.

    Lo de agachar la cabeza y no quejarse por "miedos" es de pringaos.
    www.HorrorJaume.com
    Instagram @HorrorJaume Twitter @HorrorJaume
    VINEGAR SYNDROME SUBSCRIBER 2024

  21. #71
    The Final Frontier Avatar de Trek
    Fecha de ingreso
    30 abr, 06
    Mensajes
    38,719
    Agradecido
    167189 veces

    Predeterminado Re: Pack "Columbia Classics Volume 4"

    Si, si, lo que tu digas... Pero a comprar mas cara la misma edición que aquí había sido anunciada, como por ejemplo la coleccionista de 2013 rescate en LA (y otras muchas que no trascendieron).

    Y lo dice el que tuvo una cruzada con los de Amazon y decía que jamás les compraría y bla, bla, bla...

  22. #72
    gurú Avatar de Chimera
    Fecha de ingreso
    08 jun, 20
    Mensajes
    6,221
    Agradecido
    7629 veces

    Predeterminado Re: Pack "Columbia Classics Volume 4"

    Cita Iniciado por Trek Ver mensaje
    Si, si, lo que tu digas... Pero a comprar mas cara la misma edición que aquí había sido anunciada, como por ejemplo la coleccionista de 2013 rescate en LA (y otras muchas que no trascendieron).

    Y lo dice el que tuvo una cruzada con los de Amazon y decía que jamás les compraría y bla, bla, bla...
    Son cosas que no podemos controlar.

    Y lo de Amazon ya aclaré que como último último recurso siempre (a falta de alternativa o gangas imposibles).

    Para ser creyente eres muy del "a dios rogando y con el mazo dando".
    www.HorrorJaume.com
    Instagram @HorrorJaume Twitter @HorrorJaume
    VINEGAR SYNDROME SUBSCRIBER 2024

  23. #73
    Senior Member Avatar de jmac1972
    Fecha de ingreso
    02 mar, 04
    Mensajes
    9,775
    Agradecido
    11120 veces

    Predeterminado Re: Pack "Columbia Classics Volume 4"

    Cita Iniciado por Chimera Ver mensaje
    Para ser creyente eres muy del "a dios rogando y con el mazo dando".

  24. #74
    Crew Expendable Avatar de Muthur
    Fecha de ingreso
    24 may, 21
    Ubicación
    LV-426 (Acheron)
    Mensajes
    2,416
    Agradecido
    3162 veces

    Predeterminado Re: Pack "Columbia Classics Volume 4"

    Cita Iniciado por jmac1972 Ver mensaje
    ¿Eso es Jesucristo tronchando algo por la mitad con un pez espada?

    No le conocía esa faceta y referencias tan... procaces.
    jmac1972 ha agradecido esto.
    INTERFACE 2037 READY FOR INQUIRY...

  25. #75
    Senior Member Avatar de jmac1972
    Fecha de ingreso
    02 mar, 04
    Mensajes
    9,775
    Agradecido
    11120 veces

    Predeterminado Re: Pack "Columbia Classics Volume 4"

    Cita Iniciado por Muthur Ver mensaje
    ¿Eso es Jesucristo tronchando algo por la mitad con un pez espada?

    No le conocía esa faceta y referencias tan... procaces.
    Es un cortometraje titulado Fist of Jesus que es una ida de olla total divertidísima.

    https://m.youtube.com/watch?v=jldnqyC_L_0
    Muthur ha agradecido esto.

+ Responder tema
Página 3 de 5 PrimerPrimer 12345 ÚltimoÚltimo

Permisos de publicación

  • No puedes crear nuevos temas
  • No puedes responder temas
  • No puedes subir archivos adjuntos
  • No puedes editar tus mensajes
  •  
Powered by vBulletin® Version 4.2.1
Copyright © 2024 vBulletin Solutions, Inc. All rights reserved.
SEO by vBSEO
Image resizer by SevenSkins